<?xml version="1.0" standalone="no"?>
<!DOCTYPE svg PUBLIC "-//W3C//DTD SVG 1.1//EN" "http://www.w3.org/Graphics/SVG/1.1/DTD/svg11.dtd" >
<!--
2016-11-1: Created with FontForge (http://fontforge.org)
-->
<svg xmlns="http://www.w3.org/2000/svg" xmlns:xlink="http://www.w3.org/1999/xlink" version="1.1">
<metadata>
Created by FontForge 20161003 at Tue Nov  1 22:59:37 2016
 By Vladimir Kharlampidi
Copyright (c) 2016, Vladimir Kharlampidi
</metadata>
<defs>
<font id="Framework7 Icons" horiz-adv-x="512" >
  <font-face 
    font-family="Framework7 Icons"
    font-weight="400"
    font-stretch="normal"
    units-per-em="512"
    panose-1="2 0 5 3 0 0 0 0 0 0"
    ascent="448"
    descent="-64"
    x-height="448"
    bbox="-0.385387 -64 717 482"
    underline-thickness="25.6"
    underline-position="-51.2"
    unicode-range="U+0020-2713"
  />
    <missing-glyph />
    <glyph glyph-name="add" unicode="add" horiz-adv-x="358" 
d="M164 18v358h31v-358h-31zM0 182v30h358v-30h-358z" />
    <glyph glyph-name="add_round" unicode="add_round" 
d="M489 192c0 129 -104 233 -233 233s-233 -104 -233 -233s104 -233 233 -233s233 104 233 233zM0 192c0 141 115 256 256 256s256 -115 256 -256s-115 -256 -256 -256s-256 115 -256 256zM268 320v-116h116v-24h-116v-116h-24v116h-116v24h116v116h24z" />
    <glyph glyph-name="add_round_fill" unicode="add_round_fill" 
d="M256 -64v0v0c-141 0 -256 115 -256 256s115 256 256 256s256 -115 256 -256s-115 -256 -256 -256zM268 204v116h-24v-116h-116v-24h116v-116h24v116h116v24h-116v0z" />
    <glyph glyph-name="alarm" unicode="alarm" horiz-adv-x="511" 
d="M51 172c0 113 92 204 205 204s205 -91 205 -204s-92 -205 -205 -205s-205 92 -205 205zM31 172c0 -124 101 -226 225 -226s225 102 225 226s-101 225 -225 225s-225 -101 -225 -225zM52 -60l-21 22l59 59l22 -22zM455 -60l-59 59l22 22l59 -59zM256 141h-113v20h103v164
h20v-184h-10zM146 400l1 -1l3 3l-1 20c-2 1 -3 1 -5 2l-134 -121c1 -2 1 -3 2 -4l20 -3l3 2l-1 1c-2 3 -3 8 -5 12c-8 20 -11 41 -5 59c4 10 9 19 19 28c7 6 14 11 22 14c21 9 45 6 68 -5c5 -2 9 -5 13 -7zM163 414l-144 -130s-49 75 11 130s133 0 133 0zM365 400
c4 2 8 5 13 7c23 11 47 14 68 5c8 -3 14 -8 21 -14c10 -9 16 -18 20 -28c6 -18 3 -39 -5 -59c-2 -4 -3 -9 -5 -12l-1 -1l2 -2l21 3c1 1 1 2 2 4l-134 121c-2 -1 -3 -1 -5 -2l-1 -20l3 -3zM348 414c0 0 73 55 133 0s10 -130 10 -130z" />
    <glyph glyph-name="alarm_fill" unicode="alarm_fill" horiz-adv-x="511" 
d="M256 -54c-124 0 -225 102 -225 226s101 225 225 225s225 -101 225 -225s-101 -226 -225 -226zM256 141h10v184h-20v-164h-103v-20h113zM52 -60l-21 22l59 59l22 -22zM455 -60l-59 59l22 22l59 -59zM30 414c60 55 133 0 133 0l-144 -130s-49 75 11 130zM481 414
c60 -55 10 -130 10 -130l-143 130s73 55 133 0z" />
    <glyph glyph-name="albums" unicode="albums" horiz-adv-x="405" 
d="M21 341v22h363v-22h-363zM21 -64v21h363v-21h-363zM0 -64v427h21v-427h-21zM384 -64v427h21v-427h-21zM188 232v3v11c0 6 4 11 10 12l92 14c6 1 11 -3 11 -9v-49c0 -6 -4 -12 -10 -13l-82 -13v-36v-69c-1 -22 -8 -44 -18 -50c-26 -16 -68 -15 -74 13c-5 23 8 40 28 47
c5 2 9 3 18 4s12 1 16 2c5 1 9 3 9 3v2v48v41v22v9v8zM21 384v21h363v-21h-363zM32 427v21h341v-21h-341z" />
    <glyph glyph-name="albums_fill" unicode="albums_fill" horiz-adv-x="405" 
d="M0 363h405v-427h-405v427zM188 232v-8v-9v-22v-41v-48v-2s-4 -2 -9 -3c-4 -1 -7 -1 -16 -2s-13 -2 -18 -4c-20 -7 -33 -24 -28 -47c6 -28 48 -29 74 -13c10 6 17 28 18 50v69v36l82 13c6 1 10 7 10 13v49c0 6 -5 10 -11 9l-92 -14c-6 -1 -10 -6 -10 -12v-11v-3zM21 384
v21h363v-21h-363zM32 427v21h341v-21h-341z" />
    <glyph glyph-name="arrow_down" unicode="arrow_down" horiz-adv-x="327" 
d="M191 110v0l89 90c11 11 28 11 39 0s11 -28 0 -39l-136 -136c-5 -5 -12 -8 -19 -8v0c-7 0 -15 2 -21 8l-135 136c-11 11 -11 28 0 39s28 11 39 0l89 -90v249c0 15 12 27 27 27s28 -12 28 -27v-249z" />
    <glyph glyph-name="arrow_down_fill" unicode="arrow_down_fill" 
d="M256 -64c-141 0 -256 115 -256 256s115 256 256 256s256 -115 256 -256s-115 -256 -256 -256zM235 119v0l-67 67c-8 8 -21 7 -29 -1s-8 -20 0 -28l102 -102c4 -4 9 -6 14 -6v0c6 0 11 2 15 6l102 102c8 8 8 20 0 28s-21 9 -29 1l-67 -67v186c0 11 -9 20 -20 20
s-21 -9 -21 -20v-186z" />
    <glyph glyph-name="arrow_left" unicode="arrow_left" horiz-adv-x="369" 
d="M341 229c15 0 28 -12 28 -27s-13 -28 -28 -28h-248l89 -89c11 -11 11 -28 0 -39s-28 -11 -39 0l-135 136c-6 6 -8 13 -8 20s3 15 8 20l135 135c11 11 28 11 39 0s11 -27 0 -38l-89 -90h248z" />
    <glyph glyph-name="arrow_left_fill" unicode="arrow_left_fill" 
d="M256 -64c-141 0 -256 115 -256 256s115 256 256 256s256 -115 256 -256s-115 -256 -256 -256zM187 208v0l67 67c8 8 8 20 0 28s-21 9 -29 1l-101 -102c-4 -4 -6 -10 -6 -15v0c0 -6 2 -11 6 -15l101 -101c8 -8 21 -8 29 0s8 21 0 29l-67 67h186c11 0 21 9 21 20
s-10 21 -21 21h-186z" />
    <glyph glyph-name="arrow_right" unicode="arrow_right" horiz-adv-x="369" 
d="M276 174h-249c-15 0 -27 13 -27 28s12 27 27 27h249l-90 90c-11 11 -10 27 1 38s27 11 38 0l136 -135c6 -6 8 -14 8 -21v0c0 -7 -3 -14 -8 -19l-136 -136c-11 -11 -27 -11 -38 0s-12 28 -1 39l90 89v0z" />
    <glyph glyph-name="arrow_right_fill" unicode="arrow_right_fill" 
d="M256 -64c-141 0 -256 115 -256 256s115 256 256 256s256 -115 256 -256s-115 -256 -256 -256zM324 167v0l-67 -67c-8 -8 -8 -21 0 -29s21 -8 29 0l102 101c4 4 5 10 5 15v0c0 6 -1 11 -5 15l-102 102c-8 8 -21 7 -29 -1s-8 -20 0 -28l67 -67h-186c-11 0 -20 -10 -20 -21
s9 -20 20 -20h186z" />
    <glyph glyph-name="arrow_up" unicode="arrow_up" horiz-adv-x="327" 
d="M191 293v-248c0 -15 -13 -28 -28 -28s-27 13 -27 28v248l-89 -89c-11 -11 -28 -11 -39 0s-11 28 0 39l135 135c6 6 14 8 21 8v0c7 0 14 -3 19 -8l136 -135c11 -11 11 -28 0 -39s-28 -11 -39 0l-89 89v0z" />
    <glyph glyph-name="arrow_up_fill" unicode="arrow_up_fill" 
d="M256 -64c-141 0 -256 115 -256 256s115 256 256 256s256 -115 256 -256s-115 -256 -256 -256zM276 256v0l67 -67c8 -8 21 -8 29 0s8 21 0 29l-102 101c-4 4 -9 6 -14 6v0c-6 0 -11 -2 -15 -6l-102 -101c-8 -8 -8 -21 0 -29s21 -8 29 0l67 67v-186c0 -11 9 -21 20 -21
s21 10 21 21v186z" />
    <glyph glyph-name="at" unicode="at" 
d="M492 192c0 130 -106 236 -236 236s-236 -106 -236 -236s106 -236 236 -236s236 106 236 236zM0 192c0 141 115 256 256 256s256 -115 256 -256s-115 -256 -256 -256s-256 115 -256 256zM255 251v0c-26 0 -43 -23 -43 -57s17 -55 43 -55c27 0 44 22 44 56s-17 56 -44 56z
M261 346v0c84 0 144 -54 144 -134c0 -57 -24 -94 -64 -94c-21 0 -38 13 -41 33h-1c-8 -21 -25 -32 -47 -32c-37 0 -62 31 -62 76c0 44 25 75 62 75c21 0 39 -11 46 -29h1v25h21v-103c0 -16 9 -27 25 -27c24 0 40 28 40 76c0 69 -52 116 -126 116c-73 0 -127 -56 -127 -133
c0 -83 56 -131 131 -131c24 0 48 2 60 7v-17c-15 -5 -36 -8 -60 -8c-87 0 -150 56 -150 150c0 88 61 150 148 150z" />
    <glyph glyph-name="at_fill" unicode="at_fill" 
d="M256 -64c-141 0 -256 115 -256 256s115 256 256 256s256 -115 256 -256s-115 -256 -256 -256zM245 251c27 0 43 -22 43 -56s-16 -56 -43 -56c-26 0 -43 21 -43 55s17 57 43 57zM251 346c-87 0 -149 -62 -149 -150c0 -94 63 -150 150 -150c24 0 45 3 60 8v17
c-12 -5 -35 -7 -59 -7c-75 0 -131 48 -131 131c0 77 54 133 127 133c74 0 126 -47 126 -116c0 -48 -16 -76 -40 -76c-16 0 -25 11 -25 27v103h-21v-25h-2c-7 18 -24 29 -45 29c-37 0 -63 -31 -63 -75c0 -45 26 -76 63 -76c22 0 39 11 47 32h1c3 -20 20 -33 41 -33
c40 0 64 37 64 94c0 80 -60 134 -144 134z" />
    <glyph glyph-name="bag" unicode="bag" horiz-adv-x="422" 
d="M0 287c0 28 22 51 50 51h321c28 0 51 -23 51 -51v-301c0 -28 -23 -50 -51 -50h-321c-28 0 -50 22 -50 50v301zM20 287v-301c0 -17 13 -30 30 -30h321c17 0 31 13 31 30v301c0 17 -14 30 -31 30h-321c-17 0 -30 -13 -30 -30zM121 338c0 -2 -1 -3 -1 -3v-10l-20 1v10
c0 3 1 9 3 16c3 12 8 24 14 35c19 32 50 51 94 51s75 -19 94 -51c6 -11 10 -23 13 -35c2 -7 3 -13 3 -16l1 -10l-20 -1l-1 10v3c0 3 -1 6 -2 9c-2 10 -7 21 -12 30c-15 26 -39 41 -76 41s-62 -15 -77 -41c-5 -9 -9 -20 -11 -30c-1 -3 -2 -6 -2 -9z" />
    <glyph glyph-name="bag_fill" unicode="bag_fill" horiz-adv-x="422" 
d="M50 338h321c28 0 51 -23 51 -51v-301c0 -28 -23 -50 -51 -50h-321c-28 0 -50 22 -50 50v301c0 28 22 51 50 51zM121 338c0 -2 -1 -3 -1 -3v-10l-20 1v10c0 3 1 9 3 16c3 12 8 24 14 35c19 32 50 51 94 51s75 -19 94 -51c6 -11 10 -23 13 -35c2 -7 3 -13 3 -16l1 -10
l-20 -1l-1 10v3c0 3 -1 6 -2 9c-2 10 -7 21 -12 30c-15 26 -39 41 -76 41s-62 -15 -77 -41c-5 -9 -9 -20 -11 -30c-1 -3 -2 -6 -2 -9z" />
    <glyph glyph-name="bars" unicode="bars" horiz-adv-x="430" 
d="M0 294v21h430v-21h-430zM0 182v20h430v-20h-430zM0 69v21h430v-21h-430z" />
    <glyph glyph-name="bell" unicode="bell" horiz-adv-x="442" 
d="M413 27v0c3 -4 5 -7 7 -10h1c-1 3 0 7 2 11s5 7 8 8l-1 1h-420c3 -1 7 -5 9 -9s2 -8 2 -11c2 3 5 6 8 10c8 11 16 24 24 36c6 10 12 19 17 28c14 25 21 47 21 64v31c-2 101 7 140 56 186c16 15 52 25 74 25c24 0 49 -6 72 -23c47 -34 63 -73 62 -135c0 -11 -1 -20 -2 -39
c-1 -23 -2 -33 -2 -45c0 -17 7 -37 19 -61c5 -10 11 -21 18 -32c8 -12 17 -24 25 -35zM247 415c17 -3 38 -9 58 -24c93 -67 67 -158 67 -236c0 -45 68 -130 68 -130c3 -4 2 -8 -4 -8h-430c-6 0 -7 4 -4 8c0 0 69 88 69 130c0 84 -12 162 62 232c19 18 51 26 72 29
c0 9 1 27 21 27s21 -20 21 -28v0zM225 -58c-51 0 -51 55 -51 55h102s0 -55 -51 -55z" />
    <glyph glyph-name="bell_fill" unicode="bell_fill" horiz-adv-x="442" 
d="M133 387c26 24 73 30 88 30s50 -2 84 -26c93 -67 67 -158 67 -236c0 -45 68 -130 68 -130c3 -4 2 -8 -4 -8h-430c-6 0 -7 4 -4 8c0 0 69 88 69 130c0 84 -12 162 62 232zM225 -58c-51 0 -51 55 -51 55h102s0 -55 -51 -55zM226 443c26 0 20 -32 20 -32h-41s-5 32 21 32z
" />
    <glyph glyph-name="bolt" unicode="bolt" horiz-adv-x="245" 
d="M140 237l28 149l10 54l-28 -47l-141 -231l-9 -15h18h99l-19 -150l-7 -55l26 50l121 230l7 15h-16h-89zM128 217h84l-87 -167l13 106l2 11h-12h-92l102 169l-20 -107l-2 -12h12z" />
    <glyph glyph-name="bolt_fill" unicode="bolt_fill" horiz-adv-x="245" 
d="M138 225l-10 12h101h16l-7 -15l-121 -230l-26 -50l7 55l20 161l10 -11h-110h-18l9 15l141 231l28 47l-10 -54zM229 217l-9 15l-121 -231l19 -6l20 161l2 11h-12h-110l8 -15l141 231l-18 7l-31 -161l-2 -12h12h101zM138 225l-10 12h101h16l-7 -15l-121 -230l-26 -50l7 55
l20 161l10 -11h-110h-18l9 15l141 231l28 47l-10 -54z" />
    <glyph glyph-name="bolt_round" unicode="bolt_round" 
d="M278 226l22 118l11 54l-30 -47l-116 -187l-9 -16h18h80l-15 -119l-8 -55l27 49l99 188l8 15h-17h-70zM265 205h66l-65 -123l9 75l2 12h-12h-73l78 124l-15 -76l-2 -12h12zM512 192c0 -141 -115 -256 -256 -256s-256 115 -256 256s115 256 256 256s256 -115 256 -256z
M20 192c0 -131 105 -236 236 -236s236 105 236 236s-105 236 -236 236s-236 -105 -236 -236z" />
    <glyph glyph-name="bolt_round_fill" unicode="bolt_round_fill" 
d="M256 -64c-141 0 -256 115 -256 256s115 256 256 256s256 -115 256 -256s-115 -256 -256 -256zM277 225l33 173l-154 -250h98l-23 -174l134 251h-88z" />
    <glyph glyph-name="book" unicode="book" 
d="M247 -16l-7 -19c4 -5 6 -9 8 -12l8 -3v21h-6v-21l8 5l5 13c-1 2 -4 4 -6 7c-8 10 -15 20 -24 29c-15 16 -30 29 -45 37c-11 6 -22 10 -33 10c-43 0 -67 -10 -105 -35c-2 -1 -2 -2 -4 -3c-20 -13 -31 -19 -46 -24v-6l14 -11l6 3v400c0 1 2 4 2 5l1 1c1 1 3 4 6 7
c5 5 11 11 18 16c22 15 49 24 81 24s61 -12 88 -32c10 -7 18 -15 25 -23c4 -4 8 -7 9 -9l-5 12v-399zM7 393c0 0 37 55 121 55s138 -72 138 -72v-399l-10 -27h-6s-53 80 -95 80c-78 0 -93 -46 -155 -62v407c0 6 3 14 7 18zM491 375v-400l6 -3l15 11v6c-15 5 -27 11 -47 24
c-2 1 -1 2 -3 3c-38 25 -62 35 -105 35c-11 0 -22 -4 -33 -10c-15 -8 -30 -21 -45 -37c-9 -9 -17 -19 -25 -29c-2 -3 -4 -5 -5 -7l5 -13l7 -5v21h-5v-21l7 3c2 3 5 7 9 12l-7 19l1 -7v399l-4 -12c1 2 4 5 8 9c7 8 16 16 26 23c27 20 56 32 88 32s58 -9 80 -24
c7 -5 14 -11 19 -16c3 -3 4 -6 5 -7l2 -1c0 -1 1 -4 1 -5zM512 -32c-62 16 -77 62 -155 62c-42 0 -96 -80 -96 -80h-5l-10 27v399s54 72 138 72s121 -55 121 -55c4 -4 7 -12 7 -18v-407z" />
    <glyph glyph-name="book_fill" unicode="book_fill" 
d="M246 398v-442c-14 19 -56 74 -91 74c-78 0 -93 -46 -155 -62v407c0 6 3 14 7 18c0 0 37 55 121 55c53 0 95 -29 118 -50zM266 -43v441c23 21 65 50 118 50c84 0 121 -55 121 -55c4 -4 7 -12 7 -18v-407c-62 16 -77 62 -155 62c-34 0 -77 -54 -91 -73z" />
    <glyph glyph-name="bookmark" unicode="bookmark" horiz-adv-x="307" 
d="M287 407v-453l13 -12l7 3v18l-140 122l-13 11l-14 -11l-140 -122v-18l7 -3l13 12v453c0 11 10 21 21 21h225c11 0 21 -10 21 -21zM41 448h225c23 0 41 -18 41 -41v-471l-153 133l-154 -133v471c0 23 18 41 41 41z" />
    <glyph glyph-name="bookmark_fill" unicode="bookmark_fill" horiz-adv-x="307" 
d="M0 407c0 23 18 41 41 41h225c23 0 41 -18 41 -41v-471l-153 134l-154 -134v471z" />
    <glyph glyph-name="box" unicode="box" horiz-adv-x="410" 
d="M41 18v246h328v-246h-328zM31 -3h348h10v11v266v10h-10h-348h-11v-10v-266v-11h11zM20 284v82h369v-82h-369zM10 264h389h11v10v102v11h-11h-389h-10v-11v-102v-10h10zM148 172h113c8 0 15 7 15 15s-7 15 -15 15h-113c-8 0 -15 -7 -15 -15s7 -15 15 -15zM148 223h113
c20 0 36 -16 36 -36s-16 -36 -36 -36h-113c-20 0 -35 16 -35 36s15 36 35 36z" />
    <glyph glyph-name="box_fill" unicode="box_fill" horiz-adv-x="410" 
d="M20 264h369v-267h-369v267zM113 187c0 -20 15 -36 35 -36h113c20 0 36 16 36 36s-16 36 -36 36h-113c-20 0 -35 -16 -35 -36zM0 284v103h410v-103h-410z" />
    <glyph glyph-name="briefcase" unicode="briefcase" 
d="M0 294c0 28 23 52 51 52h410c28 0 51 -24 51 -52v-307c0 -28 -23 -51 -51 -51h-410c-28 0 -51 23 -51 51v307zM21 294v-307c0 -17 14 -31 31 -31h409c17 0 31 14 31 31v307c0 17 -14 31 -31 31h-409c-17 0 -31 -14 -31 -31zM216 182c-1 -3 -1 -6 -1 -10s0 -8 1 -11h-195
v21h195zM296 182h196v-21h-196c1 3 1 7 1 11s0 7 -1 10zM215 172c0 23 18 40 41 40s41 -17 41 -40s-18 -41 -41 -41s-41 18 -41 41zM164 346v-3l-1 -11l-20 2v10c0 3 1 10 3 17c3 12 7 24 14 35c19 33 51 52 96 52s77 -19 96 -52c7 -11 11 -23 14 -35c2 -7 3 -14 3 -17v-10
l-20 -2l-1 11v3c0 3 -1 6 -2 10c-3 10 -7 20 -12 29c-15 26 -40 43 -78 43s-63 -17 -78 -43c-5 -9 -9 -19 -12 -29c-1 -4 -2 -7 -2 -10z" />
    <glyph glyph-name="briefcase_fill" unicode="briefcase_fill" horiz-adv-x="502" 
d="M212 187h-212v-20h212c4 -17 20 -30 39 -30s35 13 39 30h212v20h-212c-4 17 -20 30 -39 30s-35 -13 -39 -30zM0 297c0 28 22 51 50 51h402c28 0 50 -23 50 -51v-301c0 -28 -22 -50 -50 -50h-402c-28 0 -50 22 -50 50v301zM161 348v-3l-1 -10l-20 1l1 10c0 3 0 9 2 16
c3 12 8 24 14 35c19 32 50 51 94 51s75 -19 94 -51c6 -11 10 -23 13 -35c2 -7 3 -13 3 -16l1 -10l-20 -1l-1 10v3c0 3 -1 6 -2 9c-2 10 -7 21 -12 30c-15 26 -39 41 -76 41s-61 -15 -76 -41c-5 -9 -10 -20 -12 -30c-1 -3 -2 -6 -2 -9z" />
    <glyph glyph-name="calendar" unicode="calendar" 
d="M0 401c0 26 21 47 47 47h418c26 0 47 -21 47 -47v-418c0 -26 -21 -47 -47 -47h-418c-26 0 -47 21 -47 47v418zM23 320v-337c0 -13 11 -24 24 -24h418c13 0 24 11 24 24v337c0 13 -11 23 -24 23h-418c-13 0 -24 -10 -24 -23zM326 151c0 10 7 18 17 18s18 -8 18 -18
s-8 -17 -18 -17s-17 7 -17 17zM244 151c0 10 8 18 18 18s17 -8 17 -18s-7 -17 -17 -17s-18 7 -18 17zM407 151c0 10 8 18 18 18s17 -8 17 -18s-7 -17 -17 -17s-18 7 -18 17zM244 47c0 10 8 17 18 17s17 -7 17 -17s-7 -18 -17 -18s-18 8 -18 18zM326 47c0 10 7 17 17 17
s18 -7 18 -17s-8 -18 -18 -18s-17 8 -17 18zM326 256c0 10 7 17 17 17s18 -7 18 -17s-8 -17 -18 -17s-17 7 -17 17zM407 256c0 10 8 17 18 17s17 -7 17 -17s-7 -17 -17 -17s-18 7 -18 17zM163 151c0 10 7 18 17 18s18 -8 18 -18s-8 -17 -18 -17s-17 7 -17 17zM163 47
c0 10 7 17 17 17s18 -7 18 -17s-8 -18 -18 -18s-17 8 -17 18zM244 256c0 10 8 17 18 17s17 -7 17 -17s-7 -17 -17 -17s-18 7 -18 17zM81 151c0 10 8 18 18 18s17 -8 17 -18s-7 -17 -17 -17s-18 7 -18 17zM81 47c0 10 8 17 18 17s17 -7 17 -17s-7 -18 -17 -18s-18 8 -18 18z
M163 256c0 10 7 17 17 17s18 -7 18 -17s-8 -17 -18 -17s-17 7 -17 17z" />
    <glyph glyph-name="calendar_fill" unicode="calendar_fill" 
d="M0 401c0 26 21 47 47 47h418c26 0 47 -21 47 -47v-418c0 -26 -21 -47 -47 -47h-418c-26 0 -47 21 -47 47v418zM343 134c10 0 18 7 18 17s-8 18 -18 18s-17 -8 -17 -18s7 -17 17 -17zM262 134c10 0 17 7 17 17s-7 18 -17 18s-18 -8 -18 -18s8 -17 18 -17zM425 134
c10 0 17 7 17 17s-7 18 -17 18s-18 -8 -18 -18s8 -17 18 -17zM262 29c10 0 17 8 17 18s-7 17 -17 17s-18 -7 -18 -17s8 -18 18 -18zM343 29c10 0 18 8 18 18s-8 17 -18 17s-17 -7 -17 -17s7 -18 17 -18zM343 239c10 0 18 7 18 17s-8 17 -18 17s-17 -7 -17 -17s7 -17 17 -17z
M425 239c10 0 17 7 17 17s-7 17 -17 17s-18 -7 -18 -17s8 -17 18 -17zM180 134c10 0 18 7 18 17s-8 18 -18 18s-17 -8 -17 -18s7 -17 17 -17zM180 29c10 0 18 8 18 18s-8 17 -18 17s-17 -7 -17 -17s7 -18 17 -18zM262 239c10 0 17 7 17 17s-7 17 -17 17s-18 -7 -18 -17
s8 -17 18 -17zM99 134c10 0 17 7 17 17s-7 18 -17 18s-18 -8 -18 -18s8 -17 18 -17zM99 29c10 0 17 8 17 18s-7 17 -17 17s-18 -7 -18 -17s8 -18 18 -18zM180 239c10 0 18 7 18 17s-8 17 -18 17s-17 -7 -17 -17s7 -17 17 -17zM23 401v-34c0 -13 11 -24 24 -24h418
c13 0 24 11 24 24v34c0 13 -11 24 -24 24h-418c-13 0 -24 -11 -24 -24z" />
    <glyph glyph-name="camera" unicode="camera" horiz-adv-x="573" 
d="M20 38c0 -23 18 -41 41 -41h451c23 0 41 18 41 41v246c0 23 -18 41 -41 41h-72c-18 0 -39 10 -49 25l-27 39c-3 4 -11 8 -16 8h-123c-5 0 -12 -4 -15 -8l-28 -39c-10 -15 -31 -25 -49 -25h-72c-23 0 -41 -18 -41 -41v-246zM61 346h72c11 0 25 7 32 16l28 39
c7 9 21 16 32 16h123c11 0 26 -7 33 -16l27 -39c7 -9 21 -16 32 -16h72c34 0 61 -28 61 -62v-246c0 -34 -27 -61 -61 -61h-451c-34 0 -61 27 -61 61v246c0 34 27 62 61 62zM410 161c0 -68 -55 -123 -123 -123s-123 55 -123 123s55 123 123 123s123 -55 123 -123zM184 161
c0 -57 46 -102 103 -102s102 45 102 102s-45 103 -102 103s-103 -46 -103 -103zM440 284c0 11 10 21 21 21s20 -10 20 -21s-9 -20 -20 -20s-21 9 -21 20zM51 376c0 10 0 11 10 11h41c10 0 11 -1 11 -11v0c0 -10 -1 -10 -11 -10h-41c-10 0 -10 0 -10 10v0z" />
    <glyph glyph-name="camera_fill" unicode="camera_fill" horiz-adv-x="573" 
d="M0 284c0 34 27 62 61 62h72c11 0 25 7 32 16l28 39c7 9 21 16 32 16h123c11 0 26 -7 33 -16l27 -39c7 -9 21 -16 32 -16h72c34 0 61 -28 61 -62v-246c0 -34 -27 -61 -61 -61h-451c-34 0 -61 27 -61 61v246zM410 161c0 68 -55 123 -123 123s-123 -55 -123 -123
s55 -123 123 -123s123 55 123 123zM184 161c0 57 46 103 103 103s102 -46 102 -103s-45 -102 -102 -102s-103 45 -103 102zM461 264c11 0 20 9 20 20s-9 21 -20 21s-21 -10 -21 -21s10 -20 21 -20zM51 376c0 10 0 11 10 11h41c10 0 11 -1 11 -11v0c0 -10 -1 -10 -11 -10h-41
c-10 0 -10 0 -10 10v0z" />
    <glyph glyph-name="card" unicode="card" 
d="M0 335c0 23 18 41 41 41h430c23 0 41 -18 41 -41v-286c0 -23 -18 -41 -41 -41h-430c-23 0 -41 18 -41 41v286zM20 335v-286c0 -11 10 -21 21 -21h430c11 0 21 10 21 21v286c0 11 -10 21 -21 21h-430c-11 0 -21 -10 -21 -21zM20 202v82h472v-82h-472zM61 141v20h308v-20
h-308zM61 79v21h205v-21h-205z" />
    <glyph glyph-name="card_fill" unicode="card_fill" 
d="M0 202h512v-153c0 -23 -18 -41 -41 -41h-430c-23 0 -41 18 -41 41v153zM61 100v-21h205v21h-205zM61 161v-20h308v20h-308zM0 335c0 23 18 41 41 41h430c23 0 41 -18 41 -41v-51h-512v51v0z" />
    <glyph glyph-name="chat" unicode="chat" 
d="M493 244c0 -101 -105 -185 -237 -185c-10 0 -20 1 -30 2s-15 -3 -25 -12c-1 -1 -3 -1 -5 -3l-4 -4c-3 -3 -6 -6 -9 -8c-5 -4 -9 -7 -14 -10c-13 -7 -29 -13 -45 -18c-7 -2 -13 -3 -18 -4c-2 0 -3 -1 -4 -1c6 -2 10 -8 10 -14v-3c0 0 1 1 1 2l4 8c0 1 6 9 8 12
c4 6 6 10 8 15c13 27 16 57 -5 67c-68 34 -109 93 -109 156c0 101 105 185 237 185s237 -84 237 -185zM225 42c-8 1 -23 -20 -47 -34c-30 -17 -72 -28 -81 -25c-10 3 9 24 20 47c9 18 10 38 3 42c-72 36 -120 99 -120 172c0 113 115 204 256 204s256 -91 256 -204
s-115 -203 -256 -203c-11 0 -21 0 -31 1z" />
    <glyph glyph-name="chat_fill" unicode="chat_fill" 
d="M256 41c-11 0 -21 0 -31 1c-8 1 -23 -20 -47 -34c-30 -17 -72 -28 -81 -25c-10 3 9 24 20 47c9 18 10 38 3 42c-72 36 -120 99 -120 172c0 113 115 204 256 204s256 -91 256 -204s-115 -203 -256 -203z" />
    <glyph glyph-name="chats" unicode="chats" 
d="M418 116v0c-1 2 -1 3 -2 5c0 1 -1 1 -1 2c-8 18 -9 38 6 45c47 23 75 62 75 103c0 66 -73 122 -165 122c-15 0 -30 -1 -44 -4l-3 15c15 3 31 5 47 5c100 0 181 -62 181 -138c0 -49 -33 -93 -84 -117c-4 -2 -4 -14 1 -25c3 -6 8 -12 11 -18v-1c5 -8 7 -14 4 -15
s-9 -1 -15 1v0c-10 3 -24 8 -36 15c-16 10 -27 25 -33 24c-10 -1 -19 -2 -29 -2c-21 0 -41 2 -59 7l4 16c17 -5 36 -7 55 -7c9 0 18 0 27 1c8 1 13 -2 21 -8c2 -1 10 -9 13 -11c3 -3 7 -4 10 -6c5 -3 11 -7 17 -9h-1v0zM78 99c-1 0 -2 -1 -2 -1c5 -1 9 -6 9 -12v-2
c1 1 1 3 3 6c0 0 5 6 6 8c3 4 4 8 6 12c10 21 13 44 -4 52c-50 25 -80 67 -80 113c0 73 77 134 173 134s173 -61 173 -134s-77 -134 -173 -134c-7 0 -15 0 -22 1c-8 1 -12 -2 -20 -9l-3 -3c-2 -1 -2 -2 -3 -3c-3 -2 -5 -3 -7 -5c-3 -3 -7 -5 -10 -7c-9 -5 -22 -10 -33 -13
c-5 -1 -9 -2 -13 -3zM166 126c-6 1 -16 -15 -34 -25c-22 -13 -54 -20 -61 -18s7 17 15 34c7 13 8 28 3 31c-53 26 -89 74 -89 127c0 83 85 149 189 149s189 -66 189 -149s-85 -150 -189 -150c-8 0 -15 0 -23 1z" />
    <glyph glyph-name="chats_fill" unicode="chats_fill" 
d="M311 408c7 1 13 1 20 1c100 0 181 -62 181 -138c0 -49 -33 -93 -84 -117c-4 -2 -4 -14 1 -25c7 -16 21 -32 15 -34c-7 -2 -32 4 -51 16c-16 10 -27 25 -33 24c-10 -1 -19 -2 -29 -2s-20 1 -30 2c56 28 93 80 93 139c0 56 -33 105 -83 134zM189 125c-8 0 -15 0 -23 1
c-6 1 -16 -15 -34 -25c-22 -13 -54 -20 -61 -18s7 17 15 34c7 13 8 28 3 31c-53 26 -89 74 -89 127c0 83 85 149 189 149s189 -66 189 -149s-85 -150 -189 -150z" />
    <glyph glyph-name="check" unicode="check" horiz-adv-x="395" 
d="M18 182l-18 -18l113 -113l18 -18l18 18l246 246l-18 18l-19 18l-227 -228l-95 95z" />
    <glyph glyph-name="check_round" unicode="check_round" 
d="M492 192c0 130 -106 236 -236 236s-236 -106 -236 -236s106 -236 236 -236s236 106 236 236zM0 192c0 141 115 256 256 256s256 -115 256 -256s-115 -256 -256 -256s-256 115 -256 256zM208 103l-82 82l14 14l82 -82h-14l174 174l14 -14l-174 -174l-7 -7z" />
    <glyph glyph-name="check_round_fill" unicode="check_round_fill" 
d="M256 -64c-141 0 -256 115 -256 256s115 256 256 256s256 -115 256 -256s-115 -256 -256 -256zM208 103l7 -7l7 7l174 174l-14 14l-174 -174h14l-82 82l-14 -14z" />
    <glyph glyph-name="chevron_down" unicode="chevron_down" horiz-adv-x="451" 
d="M451 281l-226 -222l-225 222l45 44l180 -177l181 177z" />
    <glyph glyph-name="chevron_left" unicode="chevron_left" horiz-adv-x="266" 
d="M222 417l44 -45l-177 -180l177 -180l-44 -45l-222 225z" />
    <glyph glyph-name="chevron_right" unicode="chevron_right" horiz-adv-x="266" 
d="M0 372l44 45l222 -225l-222 -225l-44 45l177 180z" />
    <glyph glyph-name="chevron_up" unicode="chevron_up" horiz-adv-x="451" 
d="M451 103l-45 -44l-181 177l-180 -177l-45 44l225 222z" />
    <glyph glyph-name="circle" unicode="circle" 
d="M492 192c0 130 -106 236 -236 236s-236 -106 -236 -236s106 -236 236 -236s236 106 236 236zM0 192c0 141 115 256 256 256s256 -115 256 -256s-115 -256 -256 -256s-256 115 -256 256z" />
    <glyph glyph-name="circle_fill" unicode="circle_fill" 
d="M0 192c0 141 115 256 256 256s256 -115 256 -256s-115 -256 -256 -256s-256 115 -256 256z" />
    <glyph glyph-name="circle_half" unicode="circle_half" 
d="M492 192c0 130 -106 236 -236 236s-236 -106 -236 -236s106 -236 236 -236s236 106 236 236zM0 192c0 141 115 256 256 256s256 -115 256 -256s-115 -256 -256 -256s-256 115 -256 256zM256 -64v0c141 0 256 115 256 256s-115 256 -256 256z" />
    <glyph glyph-name="close" unicode="close" horiz-adv-x="275" 
d="M0 71l253 253l22 -21l-253 -254zM0 303l22 21l253 -253l-22 -22z" />
    <glyph glyph-name="close_round" unicode="close_round" 
d="M489 192c0 129 -104 233 -233 233s-233 -104 -233 -233s104 -233 233 -233s233 104 233 233zM0 192c0 141 115 256 256 256s256 -115 256 -256s-115 -256 -256 -256s-256 115 -256 256zM174 291l82 -83l82 83l17 -17l-83 -82l83 -82l-17 -17l-82 83l-82 -83l-17 17l83 82
l-83 82z" />
    <glyph glyph-name="close_round_fill" unicode="close_round_fill" 
d="M256 -64c-141 0 -256 115 -256 256s115 256 256 256s256 -115 256 -256s-115 -256 -256 -256zM174 291l-17 -17l83 -82l-83 -82l17 -17l82 83l82 -83l17 17l-83 82l83 82l-17 17l-82 -83z" />
    <glyph glyph-name="cloud" unicode="cloud" horiz-adv-x="717" 
d="M594 -13c57 0 102 46 102 103s-45 102 -102 102h-24l2 23c1 6 1 12 1 18c0 90 -73 164 -163 164c-66 0 -125 -40 -151 -99l-10 -24l-21 16c-12 10 -28 15 -44 15c-40 0 -71 -32 -71 -72v-5l1 -16l-15 -5c-46 -15 -79 -58 -79 -107c0 -62 51 -113 113 -113h461zM593 212
l20 -2c59 -9 104 -59 104 -120c0 -68 -55 -123 -123 -123h-461c-74 0 -133 59 -133 133c0 59 38 110 92 127v6c0 51 41 92 92 92c14 0 27 -3 39 -8c3 -2 17 -11 17 -11s6 11 10 19c32 55 92 92 160 92c102 0 184 -82 184 -184c-1 0 -1 -21 -1 -21z" />
    <glyph glyph-name="cloud_download" unicode="cloud_download" horiz-adv-x="607" 
d="M262 75v9h-144c-56 0 -101 40 -101 99c0 44 31 75 73 89l9 3l-3 8c-1 3 -2 7 -2 7c3 42 28 63 66 63c18 0 42 -18 42 -18l9 -6l4 9s6 10 9 17c25 47 69 76 122 76c79 0 142 -63 140 -141c0 -7 -1 -22 -1 -22v-8l7 -1l20 -3c47 -5 74 -37 78 -82c0 -56 -37 -90 -92 -90
h-152v-9v-9h152c64 0 109 43 109 108v1v0c-5 52 -37 92 -92 98l-12 2v15c2 87 -68 158 -157 158c-60 0 -110 -33 -138 -85c-2 -3 -2 -3 -4 -8c-8 5 -26 15 -44 15c-46 0 -82 -29 -84 -79v-5c-38 -15 -76 -52 -76 -103c0 -69 53 -117 118 -117h144v9zM295 -42v316h18v-316
h-18zM243 24l73 -74l-12 -12l-74 74zM292 -50l74 74l12 -12l-74 -74z" />
    <glyph glyph-name="cloud_download_fill" unicode="cloud_download_fill" horiz-adv-x="607" 
d="M313 66v206h-18v-206h-182c-62 0 -113 51 -113 113c0 50 33 92 78 107v6c0 43 35 78 78 78c12 0 23 -2 33 -7c2 -2 15 -9 15 -9s5 9 8 16c27 47 77 78 135 78c86 0 156 -70 156 -156c-1 0 -1 -18 -1 -18l18 -1c50 -7 87 -51 87 -103c0 -58 -46 -104 -104 -104h-190z
M295 -39v105h18v-105h-18zM243 22l73 -74l-12 -12l-74 73zM292 -52l74 74l12 -13l-74 -73z" />
    <glyph glyph-name="cloud_fill" unicode="cloud_fill" horiz-adv-x="717" 
d="M594 -33h-461c-74 0 -133 59 -133 133c0 59 38 110 92 127v0v6c0 51 41 92 92 92c21 0 40 -7 56 -19c28 65 94 111 170 111c102 0 184 -82 184 -184c0 -7 0 -14 -1 -21h1c68 0 123 -54 123 -122s-55 -123 -123 -123v0z" />
    <glyph glyph-name="cloud_upload" unicode="cloud_upload" horiz-adv-x="607" 
d="M262 75v9h-144c-56 0 -101 40 -101 99c0 44 31 75 73 89l9 3l-3 8c-1 3 -2 7 -2 7c3 42 28 63 66 63c18 0 42 -18 42 -18l9 -6l4 9s6 10 9 17c25 47 69 76 122 76c79 0 142 -63 140 -141c0 -7 -1 -22 -1 -22v-8l7 -1l20 -3c47 -5 74 -37 78 -82c0 -56 -37 -90 -92 -90
h-152v-9v-9h152c64 0 109 43 109 108v1v0c-5 52 -37 92 -92 98l-12 2v15c2 87 -68 158 -157 158c-60 0 -110 -33 -138 -85c-2 -3 -2 -3 -4 -8c-8 5 -26 15 -44 15c-46 0 -82 -29 -84 -79v-5c-38 -15 -76 -52 -76 -103c0 -69 53 -117 118 -117h144v9zM295 253h18v-317h-18
v317zM243 188l-13 13l74 73l12 -12zM292 262l12 12l74 -73l-12 -13z" />
    <glyph glyph-name="cloud_upload_fill" unicode="cloud_upload_fill" horiz-adv-x="607" 
d="M502 274l18 -1c50 -7 87 -51 87 -103c0 -58 -46 -104 -104 -104h-390c-62 0 -113 51 -113 113c0 50 33 92 78 107v6c0 43 35 78 78 78c12 0 23 -2 33 -7c2 -2 15 -9 15 -9s5 9 8 16c27 47 77 78 135 78c86 0 156 -70 156 -156c-1 0 -1 -18 -1 -18zM313 241l53 -53l12 13
l-74 73v0v0l-74 -73l13 -13l52 53v-175h18v175zM295 66h17v-130h-17v130z" />
    <glyph glyph-name="collection" unicode="collection" 
d="M18 18v0h476v339h-476v-339zM0 9v366h9h494h9v-375h-9h-503v9v0zM82 430v18h348v-18h-348zM46 393v18h420v-18h-420z" />
    <glyph glyph-name="collection_fill" unicode="collection_fill" 
d="M0 0v375h512v-375h-512zM82 430v18h348v-18h-348zM46 393v18h420v-18h-420z" />
    <glyph glyph-name="compass" unicode="compass" 
d="M492 192c0 130 -106 236 -236 236s-236 -106 -236 -236s106 -236 236 -236s236 106 236 236zM0 192c0 141 115 256 256 256s256 -115 256 -256s-115 -256 -256 -256s-256 115 -256 256zM293 165l-57 58l166 109zM294 165l-181 -123l123 181zM270 167l-32 32l-68 -99z" />
    <glyph glyph-name="compass_fill" unicode="compass_fill" 
d="M293 165v0l109 167l-166 -109v0l-123 -180v0v0v0v0zM171 101l67 98l17 -17l14 -14zM256 -64c-141 0 -256 115 -256 256s115 256 256 256s256 -115 256 -256s-115 -256 -256 -256z" />
    <glyph glyph-name="compose" unicode="compose" horiz-adv-x="477" 
d="M183 200l56 -58l-71 -13zM383 403l36 36l58 -58l-36 -36zM0 -44v390h20v-390h-20zM0 -44v21h389v-21h-389zM0 346h307l-20 -21h-287v21zM369 243l20 21v-308h-20v287zM182 200l189 188l17 -17l-188 -189zM221 159l188 188l18 -17l-188 -189z" />
    <glyph glyph-name="compose_fill" unicode="compose_fill" horiz-adv-x="477" 
d="M0 346h389v-390h-389v390v0zM247 129v0v0h1l141 145v72h-83l-136 -137l1 -1l-21 -96zM240 141l-72 -12l15 70l-1 1l189 188l30 -30v-1l28 -27l-189 -189v0zM383 403l36 36l58 -58l-36 -36z" />
    <glyph glyph-name="data" unicode="data" 
d="M23 262c0 -13 11 -23 24 -23h139c13 0 23 10 23 23v139c0 13 -10 24 -23 24h-139c-13 0 -24 -11 -24 -24v-139zM47 448h139c26 0 47 -21 47 -47v-139c0 -26 -21 -47 -47 -47h-139c-26 0 -47 21 -47 47v139c0 26 21 47 47 47zM303 262c0 -13 10 -23 23 -23h139
c13 0 24 10 24 23v139c0 13 -11 24 -24 24h-139c-13 0 -23 -11 -23 -24v-139zM326 448h139c26 0 47 -21 47 -47v-139c0 -26 -21 -47 -47 -47h-139c-26 0 -47 21 -47 47v139c0 26 21 47 47 47zM303 -17c0 -13 10 -24 23 -24h139c13 0 24 11 24 24v139c0 13 -11 23 -24 23
h-139c-13 0 -23 -10 -23 -23v-139zM326 169h139c26 0 47 -21 47 -47v-139c0 -26 -21 -47 -47 -47h-139c-26 0 -47 21 -47 47v139c0 26 21 47 47 47zM23 -17c0 -13 11 -24 24 -24h139c13 0 23 11 23 24v139c0 13 -10 23 -23 23h-139c-13 0 -24 -10 -24 -23v-139zM47 169h139
c26 0 47 -21 47 -47v-139c0 -26 -21 -47 -47 -47h-139c-26 0 -47 21 -47 47v139c0 26 21 47 47 47z" />
    <glyph glyph-name="data_fill" unicode="data_fill" 
d="M0 401c0 26 21 47 47 47h139c26 0 47 -21 47 -47v-139c0 -26 -21 -47 -47 -47h-139c-26 0 -47 21 -47 47v139v0zM279 401c0 26 21 47 47 47h139c26 0 47 -21 47 -47v-139c0 -26 -21 -47 -47 -47h-139c-26 0 -47 21 -47 47v139v0zM279 122c0 26 21 47 47 47h139
c26 0 47 -21 47 -47v-139c0 -26 -21 -47 -47 -47h-139c-26 0 -47 21 -47 47v139v0zM0 122c0 26 21 47 47 47h139c26 0 47 -21 47 -47v-139c0 -26 -21 -47 -47 -47h-139c-26 0 -47 21 -47 47v139v0z" />
    <glyph glyph-name="delete" unicode="delete" horiz-adv-x="358" 
d="M0 182v30h358v-30h-358z" />
    <glyph glyph-name="delete_round" unicode="delete_round" 
d="M489 192c0 129 -104 233 -233 233s-233 -104 -233 -233s104 -233 233 -233s233 104 233 233zM0 192c0 141 115 256 256 256s256 -115 256 -256s-115 -256 -256 -256s-256 115 -256 256zM128 180v24h256v-24h-256z" />
    <glyph glyph-name="delete_round_fill" unicode="delete_round_fill" 
d="M256 -64c-141 0 -256 115 -256 256s115 256 256 256s256 -115 256 -256s-115 -256 -256 -256zM128 204v-24h256v24h-256z" />
    <glyph glyph-name="document" unicode="document" horiz-adv-x="378" 
d="M0 426h200l-15 6l178 -178l-7 16v-334l22 22h-378l22 -22v512zM200 448l178 -178v-334h-378v512h200zM178 426h13l10 -10v-168h-23v178zM356 248h-156v22h156v-22z" />
    <glyph glyph-name="document_fill" unicode="document_fill" horiz-adv-x="378" 
d="M378 259v-323h-378v512h178v-200h11h189v11v0zM378 270v0h-178v178v0z" />
    <glyph glyph-name="document_text" unicode="document_text" horiz-adv-x="378" 
d="M0 426h200l-15 6l178 -178l-7 16v-334l22 22h-378l22 -22v512zM200 448l178 -178v-334h-378v512h200zM178 426h13l10 -10v-168h-23v178zM356 248h-156v22h156v-22zM67 181v22h245v-22h-245zM67 248v22h67v-22h-67zM67 314v23h67v-23h-67zM67 114v22h245v-22h-245zM67 47
v23h245v-23h-245z" />
    <glyph glyph-name="document_text_fill" unicode="document_text_fill" horiz-adv-x="378" 
d="M378 259v-323h-378v512h178v-200h11h189v11v0zM67 181v-22h245v22h-245zM67 248v-23h67v23h-67zM67 314v-22h67v22h-67zM67 114v-22h245v22h-245zM67 47v-22h245v22h-245zM378 270h-178v178v0z" />
    <glyph glyph-name="down" unicode="down" horiz-adv-x="369" 
d="M184 94v0l-184 183l22 22l162 -161l163 161l22 -22l-185 -183v0z" />
    <glyph glyph-name="download" unicode="download" horiz-adv-x="389" 
d="M369 315h-123v20h143v-10v-369v-10h-389v10v379h10h133v-20h-123v-348h349v348zM184 110v328h21v-328h-21zM122 192l87 -87l-15 -14l-86 87zM180 105l87 87l15 -14l-87 -87z" />
    <glyph glyph-name="download_fill" unicode="download_fill" horiz-adv-x="389" 
d="M195 120h-1l1 -1v1zM205 130v205h-21v-205l-62 62l-14 -14l86 -87h1v0l87 87l-15 14zM0 335h389v-389h-389v389zM184 335v103h21v-103h-21z" />
    <glyph glyph-name="download_round" unicode="download_round" 
d="M492 192c0 130 -106 236 -236 236s-236 -106 -236 -236s106 -236 236 -236s236 106 236 236zM0 192c0 141 115 256 256 256s256 -115 256 -256s-115 -256 -256 -256s-256 115 -256 256zM195 49v225h20v-225h-20zM276 202v-10c45 0 82 37 82 82s-37 82 -82 82
s-81 -37 -81 -82h10h10c0 34 27 61 61 61s62 -27 62 -61s-28 -62 -62 -62v-10zM132 131l87 -87l-14 -15l-87 87zM190 44l87 87l15 -15l-87 -87z" />
    <glyph glyph-name="download_round_fill" unicode="download_round_fill" 
d="M215 68v206h-20v-206l-63 63l-14 -15l87 -87v0v0l87 87l-15 15l-62 -63v0zM256 -64v0c-141 0 -256 115 -256 256s115 256 256 256s256 -115 256 -256s-115 -256 -256 -256zM215 274c0 34 27 61 61 61s62 -27 62 -61s-28 -62 -62 -62v-20c45 0 82 37 82 82s-37 82 -82 82
s-81 -37 -81 -82h20v0z" />
    <glyph glyph-name="drawer" unicode="drawer" horiz-adv-x="451" 
d="M174 223h-174l20 20v-205l-20 21h451l-21 -21v205l21 -20h-174v20h174v-205h-451v205h174v-20zM0 243h25h-25l72 103h303l76 -103l-76 103h-303zM25 243l64 91l-17 -9h303l-16 8l66 -90h26l-76 103h-303l-72 -103h25zM225 161c-41 0 -71 31 -71 72h10h-10
c0 -40 31 -72 71 -72s72 32 72 72c0 -41 -31 -72 -72 -72zM287 233h-11c0 -28 -23 -51 -51 -51s-51 23 -51 51h-10h-10c0 -40 31 -72 71 -72s72 32 72 72h-10z" />
    <glyph glyph-name="drawer_fill" unicode="drawer_fill" horiz-adv-x="451" 
d="M0 233v-10h154c5 -35 35 -62 71 -62s66 27 71 62h155v20h-78h78v-205h-451v195zM0 243l72 103h303l76 -103h-451z" />
    <glyph glyph-name="drawers" unicode="drawers" horiz-adv-x="451" 
d="M174 131h-174l20 20v-205l-20 21h451l-21 -21v205l21 -20h-174v20h174v-205h-451v205h174v-20zM174 315h-174l20 20v-204l-20 20h451l-21 -20v204l21 -20h-174v20h174v-204h-451v204h174v-20zM0 335h25h-25l72 103h303l76 -103l-76 103h-303zM25 335l64 91l-17 -9h303
l-16 9l66 -91h26l-76 103h-303l-72 -103h25zM225 253c-41 0 -71 31 -71 72h10h-10c0 -40 31 -72 71 -72s72 32 72 72c0 -41 -31 -72 -72 -72zM287 325h-11c0 -28 -23 -51 -51 -51s-51 23 -51 51h-10h-10c0 -40 31 -72 71 -72s72 32 72 72h-10zM225 69c-41 0 -71 31 -71 72
h10h-10c0 -40 31 -72 71 -72s72 32 72 72c0 -41 -31 -72 -72 -72zM287 141h-11c0 -28 -23 -51 -51 -51s-51 23 -51 51h-10h-10c0 -40 31 -72 71 -72s72 32 72 72h-10z" />
    <glyph glyph-name="drawers_fill" unicode="drawers_fill" horiz-adv-x="451" 
d="M0 131v-11h154c5 -35 35 -61 71 -61s66 26 71 61h155v21h-78h78v-205h-451v195zM0 335v-10h154c5 -35 35 -61 71 -61s66 26 71 61h155v21h-78h78v-205h-451v194zM0 346l72 102h303l76 -102h-451z" />
    <glyph glyph-name="email" unicode="email" 
d="M18 89v287h476v-287h-476zM9 71h494h9v9v305v9h-9h-494h-9v-9v-305v-9h9zM251 140l-233 232v4h22l223 -224h-12l223 224h20v-6l-231 -230l-6 -7zM18 89v3l146 147l13 -13l-137 -137h-22zM494 89h-22l-137 137l13 13l146 -147v-3z" />
    <glyph glyph-name="email_fill" unicode="email_fill" 
d="M342 210l-79 -79l-6 -7l-6 7l-80 80l-131 -131l-18 -18h-22v4l18 17l140 140l-140 140l-18 18v4h22l18 -18l217 -217l217 217l18 18h-492v-323h512v323h-20h20v-6l-18 -18l-139 -139l139 -139l18 -18v-3h-22l-18 18z" />
    <glyph glyph-name="eye" unicode="eye" horiz-adv-x="655" 
d="M548 121c25 18 48 38 68 58c7 7 13 13 18 19c3 3 5 6 6 7v-27c-1 1 -3 4 -6 7c-5 6 -12 12 -19 19c-21 20 -44 40 -70 58c-72 52 -146 84 -217 84s-145 -33 -217 -88c-26 -20 -49 -41 -70 -62c-7 -7 -14 -14 -19 -20c-3 -4 -5 -6 -6 -7l-1 26l6 -6c5 -5 11 -12 18 -18
c20 -19 42 -37 67 -54c70 -49 146 -79 222 -79s150 31 220 83zM0 182c0 0 154 184 328 184s327 -174 327 -174s-143 -174 -327 -174s-328 164 -328 164zM410 192c0 45 -37 82 -82 82s-82 -37 -82 -82s37 -82 82 -82s82 37 82 82zM225 192c0 57 46 102 103 102
s102 -45 102 -102s-45 -102 -102 -102s-103 45 -103 102zM287 192c0 23 18 41 41 41s41 -18 41 -41s-18 -41 -41 -41s-41 18 -41 41z" />
    <glyph glyph-name="eye_fill" unicode="eye_fill" horiz-adv-x="655" 
d="M328 18c-184 0 -328 164 -328 164s154 184 328 184s327 -174 327 -174s-143 -174 -327 -174zM410 192c0 -45 -37 -82 -82 -82s-82 37 -82 82s37 82 82 82s82 -37 82 -82zM225 192c0 -57 46 -102 103 -102s102 45 102 102s-45 102 -102 102s-103 -45 -103 -102zM328 151
c23 0 41 18 41 41s-18 41 -41 41s-41 -18 -41 -41s18 -41 41 -41z" />
    <glyph glyph-name="fastforward" unicode="fastforward" horiz-adv-x="509" 
d="M229 189c6 4 6 2 0 6l-204 119c-6 3 -5 5 -5 -2v-240c0 -7 -1 -5 5 -2zM0 72v240c0 23 15 31 35 20l205 -119c20 -11 20 -31 0 -42l-205 -119c-20 -11 -35 -3 -35 20zM484 189c6 4 6 2 0 6l-204 119c-6 3 -5 5 -5 -2v-240c0 -7 -1 -5 5 -2zM255 72v240c0 23 15 31 35 20
l204 -119c20 -11 20 -31 0 -42l-204 -119c-20 -11 -35 -3 -35 20z" />
    <glyph glyph-name="fastforward_fill" unicode="fastforward_fill" horiz-adv-x="509" 
d="M35 52c-20 -11 -35 -3 -35 20v240c0 23 15 31 35 20l205 -119c20 -11 20 -31 0 -42zM290 52c-20 -11 -35 -3 -35 20v240c0 23 15 31 35 20l205 -119c20 -11 20 -31 0 -42z" />
    <glyph glyph-name="fastforward_round" unicode="fastforward_round" 
d="M492 192c0 130 -106 236 -236 236s-236 -106 -236 -236s106 -236 236 -236s236 106 236 236zM0 192c0 141 115 256 256 256s256 -115 256 -256s-115 -256 -256 -256s-256 115 -256 256zM123 113v144c0 11 8 17 18 11l123 -72c10 -6 10 -15 0 -21l-123 -72
c-10 -6 -18 -1 -18 10zM271 113v144c0 11 8 17 18 11l123 -72c10 -6 10 -15 0 -21l-123 -72c-10 -6 -18 -1 -18 10z" />
    <glyph glyph-name="fastforward_round_fill" unicode="fastforward_round_fill" 
d="M256 -64c-141 0 -256 115 -256 256s115 256 256 256s256 -115 256 -256s-115 -256 -256 -256zM141 103l123 72c10 6 10 15 0 21l-123 72c-10 6 -18 0 -18 -11v-144c0 -11 8 -16 18 -10zM289 103l123 72c10 6 10 15 0 21l-123 72c-10 6 -18 0 -18 -11v-144
c0 -11 8 -16 18 -10z" />
    <glyph glyph-name="favorites" unicode="favorites" 
d="M22 -42v0h468v468h-468v-468zM0 -53v501h11h490h11v-512h-11h-501v11v0zM200 314v23h245v-23h-245zM200 181v22h245v-22h-245zM200 47v23h245v-23h-245zM106 301l-30 -22l12 35l-30 21h37l11 35l11 -35h36l-29 -21l11 -35zM106 168l-30 -22l12 35l-30 21h37l11 35l11 -35
h36l-29 -21l11 -35zM106 34l-30 -22l12 35l-30 21h37l11 35l11 -35h36l-29 -21l11 -35z" />
    <glyph glyph-name="favorites_fill" unicode="favorites_fill" 
d="M0 448h512v-512h-512v512zM200 337v-23h245v23h-245zM200 203v-22h245v22h-245zM200 70v-23h245v23h-245zM106 301l29 -22l-11 35l29 21h-36l-11 35l-11 -35h-37l30 -21l-12 -35zM106 168l29 -22l-11 35l29 21h-36l-11 35l-11 -35h-37l30 -21l-12 -35zM106 34l29 -22
l-11 35l29 21h-36l-11 35l-11 -35h-37l30 -21l-12 -35z" />
    <glyph glyph-name="film" unicode="film" 
d="M0 387v20h512v-20h-512zM0 -23v20h512v-20h-512zM0 -3v390h20v-390h-20zM92 -3v390h21v-390h-21zM399 -3v390h21v-390h-21zM492 -3v390h20v-390h-20zM20 305v20h72v-20h-72zM420 305v20h72v-20h-72zM113 182v20h286v-20h-286zM20 141v20h72v-20h-72zM420 141v20h72v-20
h-72zM20 223v20h72v-20h-72zM420 223v20h72v-20h-72zM20 59v20h72v-20h-72zM420 59v20h72v-20h-72z" />
    <glyph glyph-name="film_fill" unicode="film_fill" 
d="M0 387v20h512v-20h-512zM0 -23v20h512v-20h-512zM0 -3v390h20v-390h-20zM492 -3v390h20v-390h-20zM92 202v185h328v-185h-328zM92 -3v185h328v-185h-328zM92 182v20h21v-20h-21zM399 182v20h21v-20h-21zM20 305v20h72v-20h-72zM420 305v20h72v-20h-72zM20 223v20h72v-20
h-72zM420 223v20h72v-20h-72zM20 141v20h72v-20h-72zM420 141v20h72v-20h-72zM20 59v20h72v-20h-72zM420 59v20h72v-20h-72z" />
    <glyph glyph-name="filter-fill" unicode="filter&#x2d;fill" horiz-adv-x="430" 
d="M389 305v20h41v-20h-41zM0 305v20h266v-20h-266zM287 315c0 23 18 41 41 41s41 -18 41 -41s-18 -41 -41 -41s-41 18 -41 41zM389 59v20h41v-20h-41zM0 59v20h266v-20h-266zM287 69c0 23 18 41 41 41s41 -18 41 -41s-18 -41 -41 -41s-41 18 -41 41zM184 182v20h246v-20
h-246zM0 182v20h61v-20h-61zM82 192c0 23 18 41 41 41s41 -18 41 -41s-18 -41 -41 -41s-41 18 -41 41z" />
    <glyph glyph-name="filter" unicode="filter" horiz-adv-x="430" 
d="M389 305v20h41v-20h-41zM0 305v20h266v-20h-266zM348 315c0 11 -9 20 -20 20s-21 -9 -21 -20s10 -21 21 -21s20 10 20 21zM287 315c0 23 18 41 41 41s41 -18 41 -41s-18 -41 -41 -41s-41 18 -41 41zM389 59v20h41v-20h-41zM0 59v20h266v-20h-266zM348 69
c0 11 -9 21 -20 21s-21 -10 -21 -21s10 -20 21 -20s20 9 20 20zM287 69c0 23 18 41 41 41s41 -18 41 -41s-18 -41 -41 -41s-41 18 -41 41zM184 182v20h246v-20h-246zM0 182v20h61v-20h-61zM143 192c0 11 -9 20 -20 20s-21 -9 -21 -20s10 -20 21 -20s20 9 20 20zM82 192
c0 23 18 41 41 41s41 -18 41 -41s-18 -41 -41 -41s-41 18 -41 41z" />
    <glyph glyph-name="flag" unicode="flag" horiz-adv-x="348" 
d="M0 183l16 4c27 7 52 10 73 8c9 -1 17 -2 28 -5c5 -1 25 -7 30 -8c32 -8 60 -12 98 -12c37 0 63 1 80 5c5 1 10 2 12 3c1 0 0 1 -1 0l12 -17h-20v219c3 1 5 1 7 2l13 -9v-8c-1 0 -1 -1 -2 -1c-7 -3 -16 -5 -25 -7c-26 -7 -51 -11 -76 -11c-24 0 -50 2 -84 8
c-7 1 -13 2 -24 4c-28 5 -39 6 -53 8c-27 3 -51 4 -71 2c-5 0 -8 -2 -9 -2l16 21v-118v-282l-20 21h20l-20 -21v90v98v8zM20 167c18 4 46 10 67 8c35 -3 71 -26 158 -26s103 12 103 12v226s-51 -21 -103 -21s-106 14 -158 21s-87 0 -87 0v-118v-282h20v180z" />
    <glyph glyph-name="flag_fill" unicode="flag_fill" horiz-adv-x="348" 
d="M87 175c-21 2 -49 -4 -67 -8v-180h-20v282v118s35 7 87 0s106 -21 158 -21s103 21 103 21v-226s-16 -12 -103 -12s-123 23 -158 26z" />
    <glyph glyph-name="folder" unicode="folder" horiz-adv-x="430" 
d="M163 345l-20 2c0 5 -3 8 -8 8l-94 1c-11 0 -21 -10 -21 -21v-286c0 -11 10 -21 21 -21h348c11 0 21 10 21 21v245c0 11 -10 21 -21 21l-207 -1c-23 0 -41 20 -39 43l19 -2c1 -3 1 -7 1 -10l1 10c0 -4 1 -7 2 -10h-3zM143 357v-10l23 -2c3 -6 8 -10 16 -10h207
c23 0 41 -18 41 -41v-245c0 -23 -18 -41 -41 -41h-348c-23 0 -41 18 -41 41v286c0 23 18 41 41 41h94c14 0 24 -9 27 -21zM28 248c-4 -4 -8 -9 -8 -15h-20c0 12 5 23 14 31c7 6 17 10 27 10h348c23 0 41 -18 41 -41h-20c0 11 -10 20 -21 20h-348c-5 0 -9 -2 -13 -5z" />
    <glyph glyph-name="folder_fill" unicode="folder_fill" horiz-adv-x="430" 
d="M0 335c0 23 18 41 41 41h94c17 0 30 -14 28 -31l1 10c-1 -11 7 -20 18 -20h207c23 0 41 -18 41 -41v-61s0 21 -10 31s-31 10 -31 10h-348s-21 0 -31 -10s-10 -31 -10 -31v102zM0 213c0 23 18 40 41 40h348c23 0 41 -17 41 -40v-164c0 -23 -18 -41 -41 -41h-348
c-23 0 -41 18 -41 41v164v0z" />
    <glyph glyph-name="forward" unicode="forward" horiz-adv-x="505" 
d="M280 382l-12 9l-9 -5v-14l228 -162l6 4v17l-6 4l-228 -161v-15l9 -4l12 8v97v21h-21c-8 0 -20 -1 -37 -3c-27 -3 -55 -10 -81 -19c-19 -7 -37 -15 -53 -26c-18 -12 -35 -30 -51 -51c-9 -13 -31 -46 -37 -54v-2c5 2 13 2 19 -3l2 -2v1v8c-3 60 20 139 55 174
c18 17 39 31 65 41c23 8 47 13 72 16c17 2 32 2 43 2h2l22 -2v22v99zM259 160c0 0 -7 0 -20 -1c-31 -3 -93 -11 -140 -43c-66 -44 -95 -157 -99 -87c-3 56 17 146 61 190c55 55 139 63 178 64h20v19s1 2 0 2v93l246 -174l-246 -174v111z" />
    <glyph glyph-name="forward_fill" unicode="forward_fill" horiz-adv-x="505" 
d="M259 397l246 -174l-246 -174v111s-94 0 -160 -44s-95 -157 -99 -87c-3 56 17 146 61 190c73 73 198 64 198 64v114z" />
    <glyph glyph-name="gear" unicode="gear" horiz-adv-x="501" 
d="M332 192c0 45 -37 82 -82 82s-82 -37 -82 -82s37 -82 82 -82s82 37 82 82zM148 192c0 57 45 102 102 102s103 -45 103 -102s-46 -102 -103 -102s-102 45 -102 102zM193 -37c-16 4 -38 12 -56 22l1 19c2 40 -29 71 -69 69l-21 -1c-7 12 -18 34 -24 53l17 15
c30 27 30 70 0 97l-18 17c4 14 11 34 21 52l25 -2c40 -2 71 29 69 69l-1 25c13 7 30 15 51 21l17 -18c27 -30 70 -30 97 0l16 17c14 -4 35 -13 52 -23l-1 -22c-2 -40 29 -71 69 -69l19 1c7 -13 17 -35 22 -56l-13 -12c-30 -27 -30 -70 0 -97l11 -10c-5 -16 -13 -39 -24 -58
l-15 1c-40 2 -71 -29 -69 -69l1 -15c-14 -8 -35 -18 -57 -24l-11 11c-27 30 -70 30 -97 0zM204 -55l16 17c19 21 48 21 67 0l15 -15l4 -5l6 1c27 7 51 18 74 32l5 3v6l-1 21c-1 28 19 48 47 47l21 -1h6l3 5c14 23 25 48 32 75l1 5l-4 5l-16 14c-21 19 -21 48 0 67l17 16l4 4
l-1 6c-6 26 -16 51 -29 73l-3 5h-6l-25 -1c-28 -1 -48 19 -47 47l1 28v6l-5 3c-21 13 -44 23 -69 30l-6 2l-4 -5l-20 -21c-19 -21 -48 -21 -67 0l-21 23l-4 4l-6 -1c-24 -6 -47 -16 -68 -28l-5 -3v-6l1 -32c1 -28 -19 -48 -47 -47l-31 1l-7 1l-3 -6c-12 -21 -22 -44 -28 -68
l-1 -6l5 -4l23 -21c21 -19 21 -48 0 -67l-22 -19l-5 -5l2 -6c7 -25 17 -48 30 -69l4 -5h6l27 1c28 1 48 -19 47 -47l-1 -25v-6l5 -3c22 -13 48 -23 74 -29l5 -1z" />
    <glyph glyph-name="gear_fill" unicode="gear_fill" horiz-adv-x="501" 
d="M200 -59c-30 6 -59 17 -84 33l1 20c2 34 -24 60 -58 58l-23 -1c-16 24 -28 51 -35 80l19 16c25 23 25 60 0 83l-20 17c6 28 17 55 32 79l27 -1c34 -2 60 24 58 58l-1 27c24 15 51 26 79 32l17 -20c23 -25 60 -25 83 0l16 19c29 -7 56 -19 80 -35l-1 -23
c-2 -34 24 -60 58 -58l20 1c16 -25 27 -54 33 -84l-14 -12c-25 -23 -25 -60 0 -83l13 -11c-7 -31 -19 -60 -36 -85l-16 1c-34 2 -60 -24 -58 -58l1 -16c-25 -17 -54 -29 -85 -36l-11 13c-23 25 -60 25 -83 0zM250 90c57 0 102 45 102 102s-45 102 -102 102
s-102 -45 -102 -102s45 -102 102 -102z" />
    <glyph glyph-name="graph_round" unicode="graph_round" 
d="M512 192c0 -141 -115 -256 -256 -256s-256 115 -256 256s115 256 256 256s256 -115 256 -256zM20 192c0 -131 105 -236 236 -236s236 105 236 236s-105 236 -236 236s-236 -105 -236 -236zM7 152l-6 25l14 -7l60 -24l-11 -3l46 47l9 10l7 -11l55 -85h-17l96 148l9 14
l8 -15l103 -176l-18 -1l112 245l10 -27l-103 -226l-9 -18l-10 17l-103 176h18l-96 -148l-8 -13l-9 13l-55 85l16 -2l-46 -47l-5 -5l-7 3z" />
    <glyph glyph-name="graph_round_fill" unicode="graph_round_fill" 
d="M488 301c15 -33 24 -70 24 -109c0 -141 -115 -256 -256 -256c-128 0 -234 94 -253 217l4 -1l60 -25l7 -3l5 5l37 38l48 -74l9 -13l8 13l87 133l94 -161l10 -17l9 18zM476 323l-106 -231l-101 174l-96 -149l-47 72l-7 11l-9 -10l-41 -42l-54 22l-15 7v15
c0 141 115 256 256 256c93 0 175 -50 220 -125z" />
    <glyph glyph-name="graph_square" unicode="graph_square" 
d="M20 -44v472h472v-472h-472zM10 -64h492h10v10v492v10h-10h-492h-10v-10v-492v-10h10zM11 161l-4 -10l60 -24l7 -3l5 5l37 38l48 -74l9 -13l8 13l87 134l94 -162l10 -17l9 18l129 283l-9 4l-10 4l-121 -265l-93 159l-8 15l-9 -14l-87 -135l-47 72l-7 11l-9 -10l-41 -42
l-54 22z" />
    <glyph glyph-name="graph_square_fill" unicode="graph_square_fill" 
d="M0 448h512v-512h-512v512zM7 152l60 -25l7 -3l5 5l37 38l48 -74l9 -13l8 13l87 133l94 -161l10 -17l9 18l129 283l2 4v51l-21 -47l-121 -265l-101 174l-96 -149l-47 72l-7 11l-9 -10l-41 -42l-54 22l-15 7v-22z" />
    <glyph glyph-name="heart" unicode="heart" horiz-adv-x="505" 
d="M262 16c3 -2 5 -4 6 -6v2l-5 4c-14 11 -31 24 -47 36c-24 18 -42 32 -50 40c-134 123 -187 234 -112 303c37 34 76 40 117 26c16 -5 31 -13 45 -23c10 -7 17 -13 23 -18l14 -13l13 13c6 5 13 11 23 18c14 10 29 18 45 23c41 14 80 8 117 -26c75 -69 22 -180 -112 -303
c-8 -8 -26 -22 -50 -40c-16 -12 -33 -25 -47 -36l-5 -4v-2c1 2 4 4 7 6c7 4 15 3 21 -1l-12 9l-12 -9c6 4 14 5 21 1zM251 0c-15 11 -78 59 -98 77c-102 94 -215 238 -112 333c96 88 198 -3 212 -16c14 13 115 104 211 16c103 -95 -10 -239 -112 -333
c-20 -18 -83 -66 -98 -77c0 0 0 -2 -1 -1c-1 -1 -2 1 -2 1z" />
    <glyph glyph-name="heart_fill" unicode="heart_fill" horiz-adv-x="505" 
d="M253 -1c-1 -1 -2 1 -2 1c-15 11 -78 59 -98 77c-102 94 -215 238 -112 333c96 88 198 -3 212 -16c14 13 115 104 211 16c103 -95 -10 -239 -112 -333c-20 -18 -83 -66 -98 -77c0 0 0 -2 -1 -1z" />
    <glyph glyph-name="help" unicode="help" 
d="M489 192c0 129 -104 233 -233 233s-233 -104 -233 -233s104 -233 233 -233s233 104 233 233zM0 192c0 141 115 256 256 256s256 -115 256 -256s-115 -256 -256 -256s-256 115 -256 256zM175 267v0c2 43 30 76 86 76c50 0 84 -30 84 -71c0 -31 -17 -53 -42 -68
s-32 -26 -32 -47v-13h-35v18c0 26 13 44 40 60c23 14 32 27 32 48c0 25 -20 42 -49 42c-30 0 -49 -17 -51 -45h-33zM256 52v0c-16 0 -27 12 -27 28s11 28 27 28s28 -12 28 -28s-12 -28 -28 -28z" />
    <glyph glyph-name="help_fill" unicode="help_fill" 
d="M256 -64c-141 0 -256 115 -256 256s115 256 256 256s256 -115 256 -256s-115 -256 -256 -256zM175 267h33c2 28 21 45 51 45c29 0 49 -17 49 -42c0 -21 -9 -34 -32 -48c-27 -16 -40 -34 -40 -60v-18h35v13c0 21 7 32 32 47s42 37 42 68c0 41 -34 71 -84 71
c-56 0 -84 -33 -86 -76zM256 52c16 0 28 12 28 28s-12 28 -28 28s-27 -12 -27 -28s11 -28 27 -28z" />
    <glyph glyph-name="home" unicode="home" horiz-adv-x="492" 
d="M14 178l246 245h-29l246 -245l-6 14v-246l21 21h-205l20 -21v174v21h-20h-82h-21v-21v-174l21 21h-205l20 -21v246zM246 438l246 -246v-246h-205v174h-82v-174h-205v246z" />
    <glyph glyph-name="home_fill" unicode="home_fill" horiz-adv-x="492" 
d="M0 192l246 246l246 -246v-246h-205v174h-82v-174h-205v246z" />
    <glyph glyph-name="images" unicode="images" horiz-adv-x="504" 
d="M78 31v0h408v296h-408v-296zM61 23v321h8h426h8v-330h-8h-434v9v0zM329 105l6 -7l7 7l37 37l-12 1l111 -126l7 14l-405 1l7 -15l167 187h-13zM247 222l7 -7l88 -98h-13l38 38l7 6l6 -7l111 -126l13 -14h-19h-405h-19l13 15l167 186zM391 248c0 14 -13 26 -27 26
s-26 -12 -26 -26s12 -26 26 -26s27 12 27 26zM321 248c0 24 19 44 43 44s44 -20 44 -44s-20 -43 -44 -43s-43 19 -43 43zM0 84v17h43v-17h-43zM417 396h-400v-312h-17v329h9h416h9v-52h-17v35z" />
    <glyph glyph-name="images_fill" unicode="images_fill" horiz-adv-x="503" 
d="M61 344h442v-330h-442v330zM247 222l-186 -208h442l-130 148l-38 -38zM364 205c24 0 44 19 44 43s-20 44 -44 44s-43 -20 -43 -44s19 -43 43 -43zM22 413h412v-52h-391v-277h-43v329h22zM61 14v17h442v-17h-442z" />
    <glyph glyph-name="info" unicode="info" 
d="M489 192c0 129 -104 233 -233 233s-233 -104 -233 -233s104 -233 233 -233s233 104 233 233zM0 192c0 141 115 256 256 256s256 -115 256 -256s-115 -256 -256 -256s-256 115 -256 256zM221 308c0 19 16 35 35 35s35 -16 35 -35s-16 -35 -35 -35s-35 16 -35 35zM233 250
h46v-186h-46v186v0zM209 64h94v-12h-94v12v0zM209 250h24v-11h-24v11v0z" />
    <glyph glyph-name="info_fill" unicode="info_fill" 
d="M256 -64c-141 0 -256 115 -256 256s115 256 256 256s256 -115 256 -256s-115 -256 -256 -256zM256 273c19 0 35 16 35 35s-16 35 -35 35s-35 -16 -35 -35s16 -35 35 -35zM233 250v-186h46v186h-46zM209 64v-12h94v12h-94zM209 250v-11h24v11h-24z" />
    <glyph glyph-name="keyboard" unicode="keyboard" 
d="M117 379c0 27 -21 48 -48 48s-48 -21 -48 -48s21 -48 48 -48s48 21 48 48zM0 379c0 38 31 69 69 69s70 -31 70 -69s-32 -70 -70 -70s-69 32 -69 70zM304 379c0 27 -21 48 -48 48s-48 -21 -48 -48s21 -48 48 -48s48 21 48 48zM187 379c0 38 31 69 69 69s69 -31 69 -69
s-31 -70 -69 -70s-69 32 -69 70zM491 379c0 27 -21 48 -48 48s-48 -21 -48 -48s21 -48 48 -48s48 21 48 48zM373 379c0 38 32 69 70 69s69 -31 69 -69s-31 -70 -69 -70s-70 32 -70 70zM117 5c0 27 -21 48 -48 48s-48 -21 -48 -48s21 -48 48 -48s48 21 48 48zM0 5
c0 38 31 70 69 70s70 -32 70 -70s-32 -69 -70 -69s-69 31 -69 69zM304 5c0 27 -21 48 -48 48s-48 -21 -48 -48s21 -48 48 -48s48 21 48 48zM187 5c0 38 31 70 69 70s69 -32 69 -70s-31 -69 -69 -69s-69 31 -69 69zM491 5c0 27 -21 48 -48 48s-48 -21 -48 -48s21 -48 48 -48
s48 21 48 48zM373 5c0 38 32 70 70 70s69 -32 69 -70s-31 -69 -69 -69s-70 31 -70 69zM117 192c0 27 -21 48 -48 48s-48 -21 -48 -48s21 -48 48 -48s48 21 48 48zM0 192c0 38 31 69 69 69s70 -31 70 -69s-32 -69 -70 -69s-69 31 -69 69zM304 192c0 27 -21 48 -48 48
s-48 -21 -48 -48s21 -48 48 -48s48 21 48 48zM187 192c0 38 31 69 69 69s69 -31 69 -69s-31 -69 -69 -69s-69 31 -69 69zM491 192c0 27 -21 48 -48 48s-48 -21 -48 -48s21 -48 48 -48s48 21 48 48zM373 192c0 38 32 69 70 69s69 -31 69 -69s-31 -69 -69 -69s-70 31 -70 69z
" />
    <glyph glyph-name="keyboard_fill" unicode="keyboard_fill" 
d="M0 379c0 38 31 69 69 69s70 -31 70 -69s-32 -70 -70 -70s-69 32 -69 70zM187 379c0 38 31 69 69 69s69 -31 69 -69s-31 -70 -69 -70s-69 32 -69 70zM373 379c0 38 32 69 70 69s69 -31 69 -69s-31 -70 -69 -70s-70 32 -70 70zM0 5c0 38 31 70 69 70s70 -32 70 -70
s-32 -69 -70 -69s-69 31 -69 69zM187 5c0 38 31 70 69 70s69 -32 69 -70s-31 -69 -69 -69s-69 31 -69 69zM373 5c0 38 32 70 70 70s69 -32 69 -70s-31 -69 -69 -69s-70 31 -70 69zM0 192c0 38 31 69 69 69s70 -31 70 -69s-32 -69 -70 -69s-69 31 -69 69zM187 192
c0 38 31 69 69 69s69 -31 69 -69s-31 -69 -69 -69s-69 31 -69 69zM373 192c0 38 32 69 70 69s69 -31 69 -69s-31 -69 -69 -69s-70 31 -70 69z" />
    <glyph glyph-name="layers" unicode="layers" 
d="M0 167l43 30l16 -14l-25 -17l227 -174l218 174l-24 17l15 14l42 -30l-251 -201zM249 422l247 -178l4 4v18l-5 3l-247 -197h25l-256 197l-5 -3v-18l5 -4l255 177zM512 257l-251 -201l-261 201l261 181z" />
    <glyph glyph-name="layers_fill" unicode="layers_fill" 
d="M-0 167l43 30l218 -171l209 171l42 -30l-251 -201zM261 438l251 -181l-251 -201l-261 201z" />
    <glyph glyph-name="left" unicode="left" horiz-adv-x="205" 
d="M0 202v0l183 184l22 -22l-161 -162l161 -162l-22 -22l-183 184v0z" />
    <glyph glyph-name="list" unicode="list" 
d="M22 -42v0h468v468h-468v-468zM0 -53v501h11h490h11v-512h-11h-501v11v0zM200 314v23h245v-23h-245zM200 181v22h245v-22h-245zM200 47v23h245v-23h-245zM89 326c0 12 10 22 22 22s23 -10 23 -22s-11 -23 -23 -23s-22 11 -22 23zM89 192c0 12 10 22 22 22s23 -10 23 -22
s-11 -22 -23 -22s-22 10 -22 22zM89 58c0 12 10 23 22 23s23 -11 23 -23s-11 -22 -23 -22s-22 10 -22 22z" />
    <glyph glyph-name="list_fill" unicode="list_fill" 
d="M0 -53v501h11h490h11v-512h-11h-501v11v0zM200 337v-23h245v23h-245zM200 203v-22h245v22h-245zM200 70v-23h245v23h-245zM111 303c12 0 23 11 23 23s-11 22 -23 22s-22 -10 -22 -22s10 -23 22 -23zM111 170c12 0 23 10 23 22s-11 22 -23 22s-22 -10 -22 -22
s10 -22 22 -22zM111 36c12 0 23 10 23 22s-11 23 -23 23s-22 -11 -22 -23s10 -22 22 -22z" />
    <glyph glyph-name="lock" unicode="lock" horiz-adv-x="430" 
d="M20 -13c0 -17 14 -31 31 -31h328c17 0 31 14 31 31v236c0 17 -14 30 -31 30h-328c-17 0 -31 -13 -31 -30v-236zM51 274h328c28 0 51 -23 51 -51v-236c0 -28 -23 -51 -51 -51h-328c-28 0 -51 23 -51 51v236c0 28 23 51 51 51zM246 120c0 17 -14 31 -31 31s-31 -14 -31 -31
s14 -30 31 -30s31 13 31 30zM164 120c0 28 23 52 51 52s51 -24 51 -52s-23 -51 -51 -51s-51 23 -51 51zM205 18v61h20v-61h-20zM317 335h11c0 62 -51 113 -113 113s-113 -51 -113 -113h11h10c0 51 41 93 92 93s92 -42 92 -93h10zM102 263v73h21v-73h-21zM307 263v73h21v-73
h-21z" />
    <glyph glyph-name="lock_fill" unicode="lock_fill" horiz-adv-x="430" 
d="M225 70c23 5 41 25 41 50c0 28 -23 52 -51 52s-51 -24 -51 -52c0 -25 18 -45 41 -50v-52h20v52zM0 223c0 28 23 51 51 51h328c28 0 51 -23 51 -51v-236c0 -28 -23 -51 -51 -51h-328c-28 0 -51 23 -51 51v236zM317 335h11c0 62 -51 113 -113 113s-113 -51 -113 -113h11h10
c0 51 41 93 92 93s92 -42 92 -93h10zM102 274v61h21v-61h-21zM307 274v61h21v-61h-21z" />
    <glyph glyph-name="login" unicode="login" horiz-adv-x="502" 
d="M126 107l-7 -4c34 -65 101 -110 180 -110c112 0 203 91 203 203s-91 203 -203 203c-79 0 -146 -45 -180 -110l7 -3l7 -4c31 60 94 101 166 101c103 0 187 -84 187 -187s-84 -187 -187 -187c-72 0 -135 41 -166 101zM293 188h-293v16h293v-16zM228 138l69 69l11 -11
l-69 -69zM297 185l-69 69l11 11l69 -69z" />
    <glyph glyph-name="login_fill" unicode="login_fill" horiz-adv-x="508" 
d="M281 200h-186c4 110 95 198 206 198c114 0 207 -92 207 -206s-93 -206 -207 -206c-111 0 -202 88 -206 198h186l-50 -51l12 -11l70 70v0v0l-70 70l-12 -11zM0 184v16h95v-16h-95z" />
    <glyph glyph-name="logout" unicode="logout" horiz-adv-x="502" 
d="M125 107l-7 -4c34 -65 101 -110 180 -110c112 0 204 91 204 203s-92 203 -204 203c-79 0 -146 -45 -180 -110l7 -3l7 -4c31 60 94 101 166 101c103 0 187 -84 187 -187s-84 -187 -187 -187c-72 0 -135 41 -166 101zM15 188v16h293v-16h-293zM80 138l-11 -11l-69 69l11 11
zM11 185l-11 11l69 69l11 -11z" />
    <glyph glyph-name="logout_fill" unicode="logout_fill" horiz-adv-x="507" 
d="M94 200c4 110 96 198 207 198c114 0 206 -92 206 -206s-92 -206 -206 -206c-111 0 -203 88 -207 198h219v16h-219zM16 184v16h78v-16h-78zM82 133l-12 -11l-70 70l12 12zM12 180l-12 12l70 70l12 -11z" />
    <glyph glyph-name="menu" unicode="menu" horiz-adv-x="430" 
d="M0 284v41h41v-41h-41zM0 172v40h41v-40h-41zM0 59v41h41v-41h-41zM82 294v21h348v-21h-348zM82 182v20h348v-20h-348zM82 69v21h348v-21h-348z" />
    <glyph glyph-name="mic" unicode="mic" horiz-adv-x="246" 
d="M236 253h-11v-92c0 -57 -45 -102 -102 -102s-103 45 -103 102v92h-10h-10v-92c0 -68 55 -123 123 -123s123 55 123 123v92h-10zM61 161c0 -34 28 -61 62 -61s61 27 61 61v185c0 34 -27 61 -61 61s-62 -27 -62 -61v-185zM123 428c45 0 82 -37 82 -82v-185
c0 -45 -37 -82 -82 -82s-82 37 -82 82v185c0 45 37 82 82 82zM113 -33v71h20v-71h-20zM41 -54v21h164v-21h-164z" />
    <glyph glyph-name="mic_fill" unicode="mic_fill" horiz-adv-x="246" 
d="M236 253h-11v-92c0 -57 -45 -102 -102 -102s-103 45 -103 102v92h-10h-10v-92c0 -68 55 -123 123 -123s123 55 123 123v92h-10zM123 428c45 0 82 -37 82 -82v-185c0 -45 -37 -82 -82 -82s-82 37 -82 82v185c0 45 37 82 82 82zM113 -33v71h20v-71h-20zM41 -54v21h164v-21
h-164z" />
    <glyph glyph-name="money_dollar" unicode="money_dollar" 
d="M492 192c0 130 -106 236 -236 236s-236 -106 -236 -236s106 -236 236 -236s236 106 236 236zM0 192c0 141 115 256 256 256s256 -115 256 -256s-115 -256 -256 -256s-256 115 -256 256zM263 32h-19v25c-49 3 -82 32 -83 72h23c2 -28 26 -47 60 -50v104l-10 3
c-45 12 -67 32 -67 66c0 39 31 67 77 70v25h19v-25c45 -3 76 -32 77 -69h-23c-1 25 -23 45 -54 48v-98l10 -3c50 -13 72 -33 72 -70c0 -41 -32 -70 -82 -73v-25zM321 128v0c0 27 -16 42 -58 51v-101c35 2 58 21 58 50zM191 254v0c0 -24 16 -39 53 -47v94
c-31 -1 -53 -21 -53 -47z" />
    <glyph glyph-name="money_dollar_fill" unicode="money_dollar_fill" 
d="M256 -64c-141 0 -256 115 -256 256s115 256 256 256s256 -115 256 -256s-115 -256 -256 -256zM263 32v25c50 3 82 32 82 73c0 37 -22 57 -72 70l-10 3v98c31 -3 53 -23 54 -48h23c-1 37 -32 66 -77 69v25h-19v-25c-46 -3 -77 -31 -77 -70c0 -34 22 -54 67 -66l10 -3v-104
c-34 3 -58 22 -60 50h-23c1 -40 34 -69 83 -72v-25h19zM321 128c0 -29 -23 -48 -58 -50v101c42 -9 58 -24 58 -51zM191 254c0 26 22 46 53 47v-94c-37 8 -53 23 -53 47z" />
    <glyph glyph-name="money_euro" unicode="money_euro" 
d="M492 192c0 130 -106 236 -236 236s-236 -106 -236 -236s106 -236 236 -236s236 106 236 236zM0 192c0 141 115 256 256 256s256 -115 256 -256s-115 -256 -256 -256s-256 115 -256 256zM330 319v-22c-7 2 -21 3 -32 3c-47 0 -86 -25 -99 -74h101v-19h-104
c-1 -6 -1 -12 -1 -18s0 -12 1 -18h104v-19h-101c13 -49 52 -75 99 -75c11 0 25 1 32 3v-22c-7 -2 -21 -3 -32 -3c-59 0 -111 33 -125 97h-41v19h38c-1 6 0 12 0 18s-1 12 0 18h-38v19h41c14 64 65 97 125 97c11 0 25 -2 32 -4z" />
    <glyph glyph-name="money_euro_fill" unicode="money_euro_fill" 
d="M256 -64c-141 0 -256 115 -256 256s115 256 256 256s256 -115 256 -256s-115 -256 -256 -256zM330 319c-7 2 -21 4 -32 4c-60 0 -111 -33 -125 -97h-41v-19h38c-1 -6 0 -12 0 -18s-1 -12 0 -18h-38v-19h41c14 -64 66 -97 125 -97c11 0 25 1 32 3v22c-7 -2 -21 -3 -32 -3
c-47 0 -86 26 -99 75h101v19h-104c-1 6 -1 12 -1 18s0 12 1 18h104v19h-101c13 49 52 74 99 74c11 0 25 -1 32 -3v22z" />
    <glyph glyph-name="money_pound" unicode="money_pound" 
d="M492 192c0 130 -106 236 -236 236s-236 -106 -236 -236s106 -236 236 -236s236 106 236 236zM0 192c0 141 115 256 256 256s256 -115 256 -256s-115 -256 -256 -256s-256 115 -256 256zM188 80h152v-21h-192v21c33 8 59 31 59 63c0 12 -2 24 -6 36h-50v20h42
c-6 17 -12 35 -12 53c0 45 33 73 89 73c24 0 44 -6 55 -11v-22c-9 5 -31 11 -54 11c-41 0 -65 -20 -65 -51c0 -19 6 -36 12 -53h85v-20h-78c4 -11 7 -23 7 -35c0 -33 -23 -53 -44 -63v-1z" />
    <glyph glyph-name="money_pound_fill" unicode="money_pound_fill" 
d="M256 -64c-141 0 -256 115 -256 256s115 256 256 256s256 -115 256 -256s-115 -256 -256 -256zM188 80v1c21 10 44 30 44 63c0 12 -3 24 -7 35h78v20h-85c-6 17 -12 34 -12 53c0 31 24 51 65 51c23 0 45 -6 54 -11v22c-11 5 -31 11 -55 11c-56 0 -89 -28 -89 -73
c0 -18 6 -36 12 -53h-42v-20h50c4 -12 6 -24 6 -36c0 -32 -26 -55 -59 -63v-21h192v21h-152z" />
    <glyph glyph-name="money_rubl" unicode="money_rubl" 
d="M492 192c0 130 -106 236 -236 236s-236 -106 -236 -236s106 -236 236 -236s236 106 236 236zM0 192c0 141 115 256 256 256s256 -115 256 -256s-115 -256 -256 -256s-256 115 -256 256zM218 297v-113h47c40 0 63 21 63 56s-23 57 -63 57h-47zM294 105h-76v-46h-25v46h-36
v19h36v38h-36v22h36v135h78c50 0 82 -33 82 -79s-32 -78 -82 -78h-53v-38h76v-19z" />
    <glyph glyph-name="money_rubl_fill" unicode="money_rubl_fill" 
d="M256 -64c-141 0 -256 115 -256 256s115 256 256 256s256 -115 256 -256s-115 -256 -256 -256zM218 297h47c40 0 63 -22 63 -57s-23 -56 -63 -56h-47v113zM294 105v19h-76v38h53c50 0 82 32 82 78s-32 79 -82 79h-78v-135h-36v-22h36v-38h-36v-19h36v-46h25v46h76z" />
    <glyph glyph-name="money_yen" unicode="money_yen" 
d="M492 192c0 130 -106 236 -236 236s-236 -106 -236 -236s106 -236 236 -236s236 106 236 236zM0 192c0 141 115 256 256 256s256 -115 256 -256s-115 -256 -256 -256s-256 115 -256 256zM320 115h-55v-56h-24v56h-55v19h55v33h-55v19h47l-85 133h28l77 -122h1l76 122h28
l-84 -133h46v-19h-55v-33h55v-19z" />
    <glyph glyph-name="money_yen_fill" unicode="money_yen_fill" 
d="M256 -64c-141 0 -256 115 -256 256s115 256 256 256s256 -115 256 -256s-115 -256 -256 -256zM320 115v19h-55v33h55v19h-46l84 133h-28l-76 -122h-1l-77 122h-28l85 -133h-47v-19h55v-33h-55v-19h55v-56h24v56h55z" />
    <glyph glyph-name="more" unicode="more" horiz-adv-x="471" 
d="M82 192c0 17 -14 31 -31 31s-31 -14 -31 -31s14 -31 31 -31s31 14 31 31zM0 192c0 28 23 51 51 51s51 -23 51 -51s-23 -51 -51 -51s-51 23 -51 51zM266 192c0 17 -13 31 -30 31s-31 -14 -31 -31s14 -31 31 -31s30 14 30 31zM184 192c0 28 24 51 52 51s51 -23 51 -51
s-23 -51 -51 -51s-52 23 -52 51zM451 192c0 17 -14 31 -31 31s-31 -14 -31 -31s14 -31 31 -31s31 14 31 31zM369 192c0 28 23 51 51 51s51 -23 51 -51s-23 -51 -51 -51s-51 23 -51 51z" />
    <glyph glyph-name="more_round" unicode="more_round" 
d="M492 192c0 130 -106 236 -236 236s-236 -106 -236 -236s106 -236 236 -236s236 106 236 236zM0 192c0 141 115 256 256 256s256 -115 256 -256s-115 -256 -256 -256s-256 115 -256 256zM154 192c0 11 -10 20 -21 20s-20 -9 -20 -20s9 -20 20 -20s21 9 21 20zM92 192
c0 23 18 41 41 41s41 -18 41 -41s-18 -41 -41 -41s-41 18 -41 41zM276 192c0 11 -9 20 -20 20s-20 -9 -20 -20s9 -20 20 -20s20 9 20 20zM215 192c0 23 18 41 41 41s41 -18 41 -41s-18 -41 -41 -41s-41 18 -41 41zM399 192c0 11 -9 20 -20 20s-21 -9 -21 -20s10 -20 21 -20
s20 9 20 20zM338 192c0 23 18 41 41 41s41 -18 41 -41s-18 -41 -41 -41s-41 18 -41 41z" />
    <glyph glyph-name="more_round_fill" unicode="more_round_fill" 
d="M256 -64c-141 0 -256 115 -256 256s115 256 256 256s256 -115 256 -256s-115 -256 -256 -256zM133 151c23 0 41 18 41 41s-18 41 -41 41s-41 -18 -41 -41s18 -41 41 -41zM256 151c23 0 41 18 41 41s-18 41 -41 41s-41 -18 -41 -41s18 -41 41 -41zM379 151
c23 0 41 18 41 41s-18 41 -41 41s-41 -18 -41 -41s18 -41 41 -41z" />
    <glyph glyph-name="more_vertical" unicode="more_vertical" horiz-adv-x="102" 
d="M51 346c17 0 31 13 31 30s-14 31 -31 31s-31 -14 -31 -31s14 -30 31 -30zM51 428c28 0 51 -24 51 -52s-23 -51 -51 -51s-51 23 -51 51s23 52 51 52zM51 161c17 0 31 14 31 31s-14 31 -31 31s-31 -14 -31 -31s14 -31 31 -31zM51 243c28 0 51 -23 51 -51s-23 -51 -51 -51
s-51 23 -51 51s23 51 51 51zM51 -23c17 0 31 14 31 31s-14 30 -31 30s-31 -13 -31 -30s14 -31 31 -31zM51 59c28 0 51 -23 51 -51s-23 -52 -51 -52s-51 24 -51 52s23 51 51 51z" />
    <glyph glyph-name="more_vertical_round" unicode="more_vertical_round" 
d="M492 192c0 130 -106 236 -236 236s-236 -106 -236 -236s106 -236 236 -236s236 106 236 236zM0 192c0 141 115 256 256 256s256 -115 256 -256s-115 -256 -256 -256s-256 115 -256 256zM256 90c-11 0 -20 -10 -20 -21s9 -20 20 -20s20 9 20 20s-9 21 -20 21zM256 28
c-23 0 -41 18 -41 41s18 41 41 41s41 -18 41 -41s-18 -41 -41 -41zM256 212c-11 0 -20 -9 -20 -20s9 -20 20 -20s20 9 20 20s-9 20 -20 20zM256 151c-23 0 -41 18 -41 41s18 41 41 41s41 -18 41 -41s-18 -41 -41 -41zM256 335c-11 0 -20 -9 -20 -20s9 -21 20 -21
s20 10 20 21s-9 20 -20 20zM256 274c-23 0 -41 18 -41 41s18 41 41 41s41 -18 41 -41s-18 -41 -41 -41z" />
    <glyph glyph-name="more_vertical_round_fill" unicode="more_vertical_round_fill" 
d="M512 192c0 -141 -115 -256 -256 -256s-256 115 -256 256s115 256 256 256s256 -115 256 -256zM297 69c0 23 -18 41 -41 41s-41 -18 -41 -41s18 -41 41 -41s41 18 41 41zM297 192c0 23 -18 41 -41 41s-41 -18 -41 -41s18 -41 41 -41s41 18 41 41zM297 315
c0 23 -18 41 -41 41s-41 -18 -41 -41s18 -41 41 -41s41 18 41 41z" />
    <glyph glyph-name="navigation" unicode="navigation" horiz-adv-x="412" 
d="M0 210l412 187l-174 -410v223h-238zM95 231h161v-151l118 277z" />
    <glyph glyph-name="navigation_fill" unicode="navigation_fill" horiz-adv-x="412" 
d="M0 210l412 187l-174 -410v223h-238z" />
    <glyph glyph-name="paper_plane" unicode="paper_plane" 
d="M512 448l-231 -512l-84 189l-197 89zM446 393l-392 -179l151 -69zM450 366l-230 -237l62 -138z" />
    <glyph glyph-name="paper_plane_fill" unicode="paper_plane_fill" horiz-adv-x="510" 
d="M510 430l-222 -494l-82 183zM190 135l-190 85l494 226z" />
    <glyph glyph-name="pause" unicode="pause" horiz-adv-x="307" 
d="M20 18v348h62v-348h-62zM10 -3h82h10v11v368v11h-10h-82h-10v-11v-368v-11h10zM225 18v348h62v-348h-62zM215 -3h82h10v11v368v11h-10h-82h-10v-11v-368v-11h10z" />
    <glyph glyph-name="pause_fill" unicode="pause_fill" horiz-adv-x="307" 
d="M0 -3v390h102v-390h-102zM205 -3v390h102v-390h-102z" />
    <glyph glyph-name="pause_round" unicode="pause_round" 
d="M492 192c0 130 -106 236 -236 236s-236 -106 -236 -236s106 -236 236 -236s236 106 236 236zM0 192c0 141 115 256 256 256s256 -115 256 -256s-115 -256 -256 -256s-256 115 -256 256zM174 79v226h62v-226h-62zM276 79v226h62v-226h-62z" />
    <glyph glyph-name="pause_round_fill" unicode="pause_round_fill" 
d="M256 -64c-141 0 -256 115 -256 256s115 256 256 256s256 -115 256 -256s-115 -256 -256 -256zM174 305v-226h62v226h-62zM276 305v-226h62v226h-62z" />
    <glyph glyph-name="person" unicode="person" 
d="M492 192c0 130 -106 236 -236 236s-236 -106 -236 -236s106 -236 236 -236s236 106 236 236zM0 192c0 141 115 256 256 256s256 -115 256 -256s-115 -256 -256 -256s-256 115 -256 256zM213 365c0 0 25 13 49 13c11 0 13 -7 23 -8c14 -1 51 -19 58 -41c5 -17 7 -54 5 -77
c-1 -8 -4 -15 -5 -23c-1 -3 15 -2 14 -5c-2 -10 -10 -46 -14 -56c-1 -4 -10 -5 -11 -8c-7 -14 -5 -44 -9 -55c-4 -9 -8 -5 -12 -18c-7 -24 5 -42 12 -47c14 -10 60 -26 80 -34c4 -2 -35 -50 -100 -59c-88 -12 -208 20 -198 59c0 0 60 17 72 21s17 15 20 26
c7 26 -3 27 -13 52c-4 11 -3 38 -7 49s-8 -1 -12 9c-5 11 -6 6 -10 27c-1 6 -6 27 -7 34c-1 5 9 0 9 5c0 30 -15 69 8 100c14 19 17 22 48 36z" />
    <glyph glyph-name="person_fill" unicode="person_fill" 
d="M256 -64c-141 0 -256 115 -256 256s115 256 256 256s256 -115 256 -256s-115 -256 -256 -256zM213 365c-31 -14 -34 -17 -48 -36c-23 -31 -8 -70 -8 -100c0 -5 -10 0 -9 -5c1 -7 6 -28 7 -34c4 -21 5 -16 10 -27c4 -10 8 2 12 -9s3 -38 7 -49c10 -25 20 -26 13 -52
c-3 -11 -8 -22 -20 -26s-42 -13 -42 -13s58 -39 122 -39s128 38 123 40c-21 8 -47 18 -57 25c-7 5 -19 23 -12 47c4 13 8 9 12 18c4 11 2 41 9 55c1 3 10 4 11 8c4 10 12 46 14 56c1 3 -15 2 -14 5c1 8 4 15 5 23c2 23 0 60 -5 77c-7 22 -44 40 -58 41c-10 1 -12 8 -23 8
c-24 0 -49 -13 -49 -13z" />
    <glyph glyph-name="persons" unicode="persons" 
d="M492 192c0 130 -106 236 -236 236s-236 -106 -236 -236s106 -236 236 -236s236 106 236 236zM0 192c0 141 115 256 256 256s256 -115 256 -256s-115 -256 -256 -256s-256 115 -256 256zM221 364c0 0 25 12 49 12c11 0 13 -6 23 -7c14 -1 51 -19 58 -41c5 -17 8 -54 6 -77
c-1 -8 -5 -15 -6 -23c-1 -3 15 -3 14 -6c-2 -10 -10 -45 -14 -55c-1 -4 -10 -5 -11 -8c-7 -14 -5 -45 -9 -56c-4 -9 -7 -5 -11 -18c-7 -24 4 -41 11 -46c14 -10 60 -26 80 -34c4 -2 -35 -50 -100 -59c-88 -12 -208 20 -198 59c0 0 60 16 72 20s17 15 20 26
c7 26 -3 27 -13 52c-4 11 -3 39 -7 50s-8 -1 -12 9c-5 11 -6 6 -10 27c-1 6 -6 26 -7 33c-1 5 10 1 10 6c0 30 -16 69 7 100c14 19 17 22 48 36zM429 23c-22 8 -53 20 -65 28c-7 5 -19 23 -12 47c4 13 8 9 12 18c4 11 1 41 8 55c1 3 11 4 12 8c4 10 12 46 14 56
c1 3 -15 2 -14 5c1 8 4 15 5 23c1 7 1 15 1 23c4 -1 6 -4 11 -4c8 -1 32 -12 36 -26c3 -10 4 -33 3 -48c0 -5 -2 -9 -3 -14c0 -2 9 -2 9 -4c-1 -6 -7 -28 -9 -34c-1 -2 -6 -3 -7 -5c-4 -9 -2 -28 -5 -35c-2 -6 -6 -3 -8 -11c-4 -15 4 -26 8 -29c9 -6 23 -12 36 -17
c2 -1 -6 -25 -32 -36zM99 20c-31 9 -54 25 -50 40c0 0 31 3 39 5s11 10 13 17c5 17 -1 18 -8 34c-3 7 -2 26 -5 33s-5 -1 -8 5c-3 7 -3 4 -6 18c-1 4 -4 17 -5 22c0 3 6 0 6 3c0 19 -10 44 5 65c9 13 11 15 31 24c0 0 7 4 16 6c0 -19 5 -38 5 -54c0 -5 -10 -1 -9 -6
c1 -7 6 -27 7 -33c4 -21 5 -16 10 -27c4 -10 8 2 12 -9s3 -39 7 -50c10 -25 20 -26 13 -52c-3 -11 -8 -22 -20 -26c-7 -2 -34 -10 -53 -15z" />
    <glyph glyph-name="persons_fill" unicode="persons_fill" 
d="M256 -64c-141 0 -256 115 -256 256s115 256 256 256s256 -115 256 -256s-115 -256 -256 -256zM221 364c-31 -14 -33 -17 -47 -36c-23 -31 -8 -70 -8 -100c0 -5 -11 -1 -10 -6c1 -7 6 -27 7 -33c4 -21 6 -16 11 -27c4 -10 7 2 11 -9s3 -39 7 -50c10 -25 21 -26 14 -52
c-3 -11 -9 -22 -21 -26s-45 -14 -45 -14s55 -34 126 -34c64 0 118 39 115 40c-19 7 -40 16 -49 22c-7 5 -19 22 -12 46c4 13 8 9 12 18c4 11 1 42 8 56c1 3 11 4 12 8c4 10 12 45 14 55c1 3 -15 3 -14 6c1 8 4 15 5 23c2 23 0 60 -5 77c-7 22 -45 40 -59 41
c-10 1 -12 7 -23 7c-24 0 -49 -12 -49 -12zM434 71c-3 2 -6 3 -9 5c-4 3 -12 14 -8 29c2 8 6 5 8 11c3 7 1 26 5 35c1 2 6 3 7 5c2 6 8 28 9 34c0 2 -9 2 -9 4c1 5 3 9 3 14c1 15 0 38 -3 48c-4 14 -28 25 -36 26c-5 0 -7 3 -11 4c0 -8 0 -16 -1 -23c-1 -8 -4 -15 -5 -23
c-1 -3 15 -2 14 -5c-2 -10 -10 -46 -14 -56c-1 -4 -11 -5 -12 -8c-7 -14 -4 -44 -8 -55c-4 -9 -8 -5 -12 -18c-7 -24 5 -42 12 -47s21 -12 37 -18c19 15 24 26 33 38zM83 64c19 -26 30 -31 37 -38c14 4 27 7 32 9c12 4 17 15 20 26c7 26 -3 27 -13 52c-4 11 -3 39 -7 50
s-8 -1 -12 9c-5 11 -6 6 -10 27c-1 6 -6 26 -7 33c-1 5 9 1 9 6c0 16 -5 35 -5 54c-9 -2 -16 -6 -16 -6c-20 -9 -22 -11 -31 -24c-15 -21 -5 -46 -5 -65c0 -3 -6 0 -6 -3c1 -5 4 -18 5 -22c3 -14 3 -11 6 -18c3 -6 5 2 8 -5s2 -26 5 -33c7 -16 13 -17 8 -34
c-2 -7 -5 -15 -13 -17c-1 0 -3 -1 -5 -1z" />
    <glyph glyph-name="phone" unicode="phone" horiz-adv-x="441" 
d="M21 344c0 -2 1 -8 3 -16c3 -14 8 -31 16 -49c22 -52 58 -107 113 -162c54 -55 108 -91 158 -110c17 -7 33 -11 47 -13c8 -1 14 -1 16 -1l2 -1c2 0 7 1 9 2l1 1h1c3 1 9 4 15 11c4 4 7 9 10 15c1 1 2 2 3 4v2l3 6c1 1 1 2 1 3c5 12 -1 28 -12 34l-65 40c-7 5 -21 3 -28 -2
l-7 -4c-22 -16 -54 -13 -73 6l-101 103c-19 19 -21 51 -5 73l8 11c5 6 6 19 1 25l-49 66c-6 9 -18 10 -26 3l-36 -31c-3 -3 -6 -10 -5 -14v-2zM13 376l36 31c17 15 42 11 55 -7l49 -66c10 -14 10 -35 0 -49l-8 -11c-10 -14 -10 -35 2 -47l102 -103c12 -12 32 -14 46 -4l6 5
c14 10 36 11 51 2l66 -39c19 -12 28 -39 20 -60c0 0 -4 -11 -7 -16c-14 -29 -38 -36 -38 -36c-5 -2 -13 -4 -19 -4c0 0 -107 -1 -236 130s-138 241 -138 241c-2 11 4 26 13 33z" />
    <glyph glyph-name="phone_fill" unicode="phone_fill" horiz-adv-x="441" 
d="M0 344c-2 11 4 26 13 33l36 31c17 15 42 11 55 -7l49 -66c10 -14 10 -35 0 -49l-8 -11c-10 -14 -10 -35 2 -47l102 -103c12 -12 32 -14 46 -4l6 5c14 10 36 11 51 2l66 -39c19 -12 28 -39 20 -60c0 0 -4 -11 -7 -16c-14 -29 -38 -36 -38 -36c-5 -2 -13 -4 -19 -4
c0 0 -107 -1 -236 130s-138 241 -138 241z" />
    <glyph glyph-name="phone_round" unicode="phone_round" 
d="M197 263c1 2 1 6 0 8l-32 43l2 -1l-19 -16c-3 -3 -6 -10 -5 -14l1 -1v-1v-2c0 -2 0 -4 1 -6c2 -7 5 -15 9 -25c12 -28 33 -59 66 -92c32 -33 64 -54 96 -65c11 -4 20 -7 29 -8c5 -1 8 -1 9 -1l-7 -1c2 1 6 3 10 6c3 3 6 5 7 8l2 6s3 5 4 7c0 1 -1 4 -2 5l-42 25
c-3 2 -9 2 -11 0l-1 -1c-17 -13 -42 -11 -57 4l-52 53c-19 19 -21 51 -5 73l16 -11c-1 -2 -2 -3 -3 -5l3 4c-1 -2 -2 -3 -3 -5zM200 267l-3 -4l16 -12c-6 -14 -4 -31 6 -42l52 -53c8 -8 22 -10 31 -3l1 1c9 7 24 8 34 2l42 -26c10 -6 14 -18 10 -29c0 0 -5 -12 -6 -15
c-8 -17 -29 -24 -29 -24s-70 0 -149 79s-82 138 -82 138c-2 11 3 27 12 34l19 16c9 7 21 6 28 -3l31 -43c6 -8 7 -18 3 -27zM492 192c0 130 -106 236 -236 236s-236 -106 -236 -236s106 -236 236 -236s236 106 236 236zM0 192c0 141 115 256 256 256s256 -115 256 -256
s-115 -256 -256 -256s-256 115 -256 256z" />
    <glyph glyph-name="phone_round_fill" unicode="phone_round_fill" 
d="M256 -64c-141 0 -256 115 -256 256s115 256 256 256s256 -115 256 -256s-115 -256 -256 -256zM125 273c0 0 3 -60 82 -139s149 -79 149 -79s20 8 28 25c1 3 6 14 6 14c4 11 0 23 -10 29l-42 26c-10 6 -25 5 -34 -2h-1c-9 -7 -22 -6 -30 2l-52 53c-12 12 -13 32 -3 46
l-4 -4c7 9 8 24 1 33l-32 42c-7 9 -18 10 -27 3l-19 -16c-9 -7 -14 -22 -12 -33z" />
    <glyph glyph-name="photos" unicode="photos" 
d="M79 42v0h415v300h-415v-300zM62 33v327h9h432h9v-336h-9h-441v9v0zM0 95v18h44v-18h-44zM424 413h-406v-318h-18v335h9h424h8v-53h-17v36z" />
    <glyph glyph-name="photos_fill" unicode="photos_fill" 
d="M62 24v336h450v-336h-450zM22 430h419v-53h-397v-282h-44v335h22z" />
    <glyph glyph-name="pie" unicode="pie" 
d="M256 -44c130 0 236 106 236 236s-106 236 -236 236l20 19v-255v-12l-10 -6l-225 -121l8 27c41 -75 120 -124 207 -124zM512 192c0 -141 -115 -256 -256 -256c-97 0 -182 54 -225 134l225 122v256c141 0 256 -115 256 -256zM236 428l-19 17h-2v-233l11 18l-214 -116
c0 -1 1 -1 1 -2l22 -8l2 1c-11 28 -17 57 -17 87c0 123 95 225 216 235v1zM236 212l-217 -117c-12 30 -19 63 -19 97c0 134 104 245 236 255v-235z" />
    <glyph glyph-name="pie_fill" unicode="pie_fill" 
d="M256 448c141 0 256 -115 256 -256s-115 -256 -256 -256c-97 0 -182 54 -225 134l225 122v256zM236 447v-235l-217 -117c-12 30 -19 63 -19 97c0 134 104 245 236 255z" />
    <glyph glyph-name="play" unicode="play" horiz-adv-x="339" 
d="M314 190c2 1 4 2 5 3v-1v-1c-1 1 -3 2 -5 3l-288 163c-6 3 -6 5 -6 -2v-326c0 -7 0 -5 6 -2zM0 29v326c0 23 16 31 36 20l288 -163c20 -11 20 -29 0 -40l-288 -163c-20 -11 -36 -3 -36 20z" />
    <glyph glyph-name="play_fill" unicode="play_fill" horiz-adv-x="339" 
d="M36 9c-20 -11 -36 -3 -36 20v326c0 23 16 31 36 20l288 -163c20 -11 20 -29 0 -40z" />
    <glyph glyph-name="play_round" unicode="play_round" 
d="M492 192c0 130 -106 236 -236 236s-236 -106 -236 -236s106 -236 236 -236s236 106 236 236zM0 192c0 141 115 256 256 256s256 -115 256 -256s-115 -256 -256 -256s-256 115 -256 256zM210 91c-20 -11 -36 -2 -36 20v158c0 23 16 32 36 21l140 -80c20 -11 20 -29 0 -40z
" />
    <glyph glyph-name="play_round_fill" unicode="play_round_fill" 
d="M256 -64c-141 0 -256 115 -256 256s115 256 256 256s256 -115 256 -256s-115 -256 -256 -256zM210 91l140 79c20 11 20 29 0 40l-140 80c-20 11 -36 2 -36 -21v-158c0 -22 16 -31 36 -20z" />
    <glyph glyph-name="radio" unicode="radio" horiz-adv-x="503" 
d="M215 219c0 20 16 37 36 37s37 -17 37 -37s-17 -36 -37 -36s-36 16 -36 36zM177 145c-41 41 -41 108 0 149c5 5 14 5 19 0s5 -15 0 -20c-30 -30 -30 -80 0 -110c5 -5 5 -14 0 -19s-14 -5 -19 0zM356 215c-1 -26 -11 -51 -30 -70c-5 -5 -15 -5 -20 0s-5 14 0 19
c14 14 22 33 23 52c1 22 -7 42 -23 58c-5 5 -5 15 0 20s15 5 20 0c21 -21 31 -50 30 -79zM125 93c-70 70 -70 182 0 252c5 5 15 5 20 0s5 -14 0 -19c-59 -59 -59 -154 0 -213c5 -5 5 -15 0 -20s-15 -5 -20 0zM430 211c-2 -44 -21 -86 -53 -118c-5 -5 -14 -5 -19 0
s-5 15 0 20c27 27 42 62 44 99c2 42 -14 84 -44 114c-5 5 -5 14 0 19s14 5 19 0c36 -36 55 -84 53 -134zM74 42c-98 98 -98 257 0 355c5 5 14 5 19 0s5 -14 0 -19c-87 -87 -87 -230 0 -317c5 -5 5 -14 0 -19s-14 -5 -19 0zM503 208c-3 -62 -29 -121 -74 -166
c-5 -5 -14 -5 -19 0s-5 14 0 19c40 40 62 93 65 148c3 63 -20 124 -65 169c-5 5 -5 14 0 19s14 5 19 0c51 -51 77 -119 74 -189z" />
    <glyph glyph-name="redo" unicode="redo" horiz-adv-x="430" 
d="M317 381l113 -87l-113 -87v174zM154 8v-11c-85 0 -154 69 -154 154s69 154 154 154v-11v-10c-74 0 -134 -59 -134 -133s60 -133 134 -133v-10zM317 284h-163v21h163v-21zM410 -3h-256v21h256v-21z" />
    <glyph glyph-name="refresh" unicode="refresh" horiz-adv-x="389" 
d="M195 335v11c-107 0 -195 -88 -195 -195s88 -195 195 -195s194 88 194 195h-10h-10c0 -96 -78 -174 -174 -174s-175 78 -175 174s79 174 175 174v10zM195 417l112 -87l-112 -87v174z" />
    <glyph glyph-name="refresh_round" unicode="refresh_round" 
d="M492 192c0 130 -106 236 -236 236s-236 -106 -236 -236s106 -236 236 -236s236 106 236 236zM0 192c0 141 115 256 256 256s256 -115 256 -256s-115 -256 -256 -256s-256 115 -256 256zM256 335v11c-85 0 -154 -69 -154 -154s69 -154 154 -154s154 69 154 154h-11h-10
c0 -74 -59 -133 -133 -133s-133 59 -133 133s59 133 133 133v10zM256 407l92 -71l-92 -71v142z" />
    <glyph glyph-name="refresh_round_fill" unicode="refresh_round_fill" 
d="M256 -64c-141 0 -256 115 -256 256s115 256 256 256s256 -115 256 -256s-115 -256 -256 -256zM102 192c0 -85 69 -154 154 -154s154 69 154 154h-21c0 -74 -59 -133 -133 -133s-133 59 -133 133s59 133 133 133v21c-85 0 -154 -69 -154 -154zM256 407v-142l92 71z" />
    <glyph glyph-name="reload" unicode="reload" horiz-adv-x="416" 
d="M340 331l8 7c-76 76 -200 76 -276 0l8 -7l7 -7c68 68 178 68 246 0zM80 70l-8 -7c76 -76 200 -76 276 0l-8 7l-7 8c-68 -68 -178 -68 -246 0zM80 70l-8 -7c76 -76 200 -76 276 0l-8 7l-7 8c-68 -68 -178 -68 -246 0zM398 389l18 -141l-141 18zM141 132l-123 -123l-18 141
z" />
    <glyph glyph-name="reload_round" unicode="reload_round" horiz-adv-x="502" 
d="M482 197c0 128 -103 231 -231 231s-231 -103 -231 -231s103 -231 231 -231s231 103 231 231zM0 197c0 139 112 251 251 251s251 -112 251 -251s-112 -251 -251 -251s-251 112 -251 251zM251 338v10c-83 0 -151 -68 -151 -151h10h10c0 72 59 131 131 131v10zM251 56v-10
c83 0 151 68 151 151h-10h-11c0 -72 -58 -130 -130 -130v-11zM251 56v-10c83 0 151 68 151 151h-10h-11c0 -72 -58 -130 -130 -130v-11zM251 408l90 -70l-90 -70v140zM251 132v-140l-90 70z" />
    <glyph glyph-name="reload_round_fill" unicode="reload_round_fill" horiz-adv-x="502" 
d="M251 -54c-139 0 -251 112 -251 251s112 251 251 251s251 -112 251 -251s-112 -251 -251 -251zM100 197h20c0 72 59 131 131 131v20c-83 0 -151 -68 -151 -151zM402 197h-21c0 -72 -58 -130 -130 -130v-21c83 0 151 68 151 151zM251 408v-140l90 70zM251 132l-90 -70
l90 -70v140z" />
    <glyph glyph-name="reply" unicode="reply" horiz-adv-x="505" 
d="M225 382v-99v-22l22 2h2c11 0 26 0 43 -2c25 -3 49 -8 72 -16c26 -10 48 -24 66 -41c35 -35 57 -114 54 -174v-8v-1c1 1 2 1 3 2c6 5 13 5 18 3v2c-6 8 -28 41 -37 54c-16 21 -33 39 -51 51c-16 11 -34 19 -53 26c-26 9 -54 16 -81 19c-17 2 -29 3 -37 3h-21v-21v-97
l12 -8l9 4v15l-228 161l-6 -4v-17l6 -4l228 162v14l-9 5zM246 160v-111l-246 174l246 174v-93c-1 0 0 -2 0 -2v-19h20c39 -1 123 -9 178 -64c44 -44 64 -134 61 -190c-4 -70 -33 43 -99 87c-47 32 -109 40 -140 43c-13 1 -20 1 -20 1z" />
    <glyph glyph-name="reply_fill" unicode="reply_fill" horiz-adv-x="505" 
d="M246 397v-114s125 9 198 -64c44 -44 64 -134 61 -190c-4 -70 -33 43 -99 87s-160 44 -160 44v-111l-246 174z" />
    <glyph glyph-name="rewind" unicode="rewind" horiz-adv-x="509" 
d="M280 291l204 -119c6 -3 5 -4 5 3v239c0 7 1 6 -5 3l-204 -120c-6 -4 -6 -2 0 -6zM509 175c0 -23 -15 -32 -35 -21l-205 120c-20 11 -20 30 0 41l205 119c20 11 35 3 35 -20v-239zM25 291l204 -119c6 -3 5 -4 5 3v239c0 7 1 6 -5 3l-204 -120c-6 -4 -6 -2 0 -6zM255 175
c0 -23 -16 -32 -36 -21l-204 120c-20 11 -20 30 0 41l204 119c20 11 36 3 36 -20v-239z" />
    <glyph glyph-name="rewind_fill" unicode="rewind_fill" horiz-adv-x="509" 
d="M474 52l-205 119c-20 11 -20 31 0 42l205 119c20 11 35 3 35 -20v-240c0 -23 -15 -31 -35 -20zM219 52l-204 119c-20 11 -20 31 0 42l204 119c20 11 36 3 36 -20v-240c0 -23 -16 -31 -36 -20z" />
    <glyph glyph-name="rewind_round" unicode="rewind_round" 
d="M20 192c0 -130 106 -236 236 -236s236 106 236 236s-106 236 -236 236s-236 -106 -236 -236zM512 192c0 -141 -115 -256 -256 -256s-256 115 -256 256s115 256 256 256s256 -115 256 -256zM241 113c0 -11 -8 -16 -18 -10l-123 72c-10 6 -10 15 0 21l123 72
c10 6 18 0 18 -11v-144zM389 113c0 -11 -8 -16 -18 -10l-123 72c-10 6 -10 15 0 21l123 72c10 6 18 0 18 -11v-144z" />
    <glyph glyph-name="rewind_round_fill" unicode="rewind_round_fill" 
d="M256 -64c-141 0 -256 115 -256 256s115 256 256 256s256 -115 256 -256s-115 -256 -256 -256zM371 103c10 -6 18 -1 18 10v144c0 11 -8 17 -18 11l-123 -72c-10 -6 -10 -15 0 -21zM223 103c10 -6 18 -1 18 10v144c0 11 -8 17 -18 11l-123 -72c-10 -6 -10 -15 0 -21z" />
    <glyph glyph-name="right" unicode="right" horiz-adv-x="205" 
d="M205 202v0l-183 -184l-22 22l161 162l-161 162l22 22l183 -184v0z" />
    <glyph glyph-name="search" unicode="search" horiz-adv-x="507" 
d="M369 253c0 96 -78 175 -174 175s-175 -79 -175 -175s79 -174 175 -174s174 78 174 174zM0 253c0 107 88 195 195 195s194 -88 194 -195s-87 -194 -194 -194s-195 87 -195 194zM315 106l29 29l163 -163l-29 -29z" />
    <glyph glyph-name="search_strong" unicode="search_strong" horiz-adv-x="507" 
d="M348 253c0 85 -68 154 -153 154s-154 -69 -154 -154s69 -153 154 -153s153 68 153 153zM0 253c0 107 88 195 195 195s194 -88 194 -195s-87 -194 -194 -194s-195 87 -195 194zM315 106l29 29l163 -163l-29 -29z" />
    <glyph glyph-name="settings" unicode="settings" horiz-adv-x="502" 
d="M456 192c0 113 -92 205 -205 205s-205 -92 -205 -205s92 -205 205 -205s205 92 205 205zM26 192c0 124 101 225 225 225s225 -101 225 -225s-101 -225 -225 -225s-225 101 -225 225zM241 192c0 6 4 10 10 10s10 -4 10 -10s-4 -10 -10 -10s-10 4 -10 10zM323 192
c0 40 -32 72 -72 72s-72 -32 -72 -72s32 -72 72 -72s72 32 72 72zM270 282l36 112l20 -6l-37 -112c29 -13 49 -41 53 -74h114v-20h-114c-4 -34 -25 -62 -55 -75l41 -112l-20 -7l-41 113c-5 -1 -11 -1 -16 -1c-27 0 -52 11 -69 30l-93 -68l-12 17l93 68c-8 13 -11 29 -11 45
s4 31 11 44l-93 73l12 16l93 -72c17 19 41 31 69 31c7 0 13 -1 19 -2zM5 244l5 20l30 -8l-5 -20zM26 307l10 18l26 -15l-10 -18zM67 362l14 14l22 -21l-15 -15zM118 407l17 10l16 -26l-18 -11zM175 432l20 5l8 -30l-20 -5zM5 140l30 8l5 -20l-30 -8zM26 77l26 15l10 -18
l-26 -15zM67 22l21 22l15 -15l-22 -21zM118 -23l15 27l18 -11l-16 -26zM175 -48l8 30l20 -5l-8 -30zM497 244l-30 -8l-5 20l29 8zM476 307l-26 -15l-11 18l27 15zM435 362l-22 -22l-14 15l22 21zM384 407l-15 -27l-18 11l15 26zM327 432l-8 -30l-20 5l8 30zM497 140l-6 -20
l-29 8l5 20zM476 77l-10 -18l-27 15l11 18zM435 22l-14 -14l-22 21l14 15zM384 -23l-18 -10l-15 26l18 11zM327 -48l-20 -5l-8 30l20 5zM241 412v31h20v-31h-20zM471 182v20h31v-20h-31zM0 182v20h31v-20h-31zM241 -59v31h20v-31h-20z" />
    <glyph glyph-name="settings_fill" unicode="settings_fill" horiz-adv-x="502" 
d="M299 370l-29 -88c-6 1 -12 2 -19 2c-28 0 -52 -12 -69 -31l-73 57c34 41 85 66 142 66c16 0 33 -2 48 -6zM318 364c66 -26 113 -88 117 -162h-93c-4 33 -24 61 -53 74zM97 293l73 -57c-7 -13 -11 -28 -11 -44s3 -32 11 -45l-74 -54c-18 29 -29 62 -29 99s11 72 30 101z
M108 76l74 54c17 -19 42 -30 69 -30c5 0 11 0 16 1l32 -87c-15 -4 -31 -6 -48 -6c-58 0 -109 26 -143 68zM318 20l-31 87c30 13 51 41 55 75h93c-4 -74 -51 -136 -117 -162zM455 202c-5 108 -94 195 -204 195c-113 0 -205 -92 -205 -205s92 -205 205 -205
c110 0 199 87 204 195h1v20h-1zM261 -33v0v-26h-20v26c-13 1 -26 2 -39 5l-7 -25l-20 5l7 25c-11 4 -23 9 -33 14l-14 -24l-17 10l14 24c-12 7 -23 16 -33 25l-18 -18l-14 14l18 18c-9 10 -18 21 -25 33l-24 -14l-10 18l24 13c-6 12 -11 24 -15 37l-25 -7l-5 20l25 7
c-2 11 -3 23 -4 35h-26v20h26c1 12 2 24 4 35l-25 7l5 20l25 -7c4 13 9 24 15 36l-24 14l10 18l24 -14c7 12 16 23 25 33l-18 18l14 14l18 -18c10 9 21 18 33 25l-14 24l17 10l14 -24c10 5 22 9 33 13l-7 26l20 5l7 -25c13 3 26 4 39 5v26h20v-26c13 -1 26 -2 39 -5l7 25
l20 -6l-7 -24c11 -4 22 -9 32 -14l14 24l18 -10l-14 -24c12 -7 23 -16 33 -25l18 18l14 -14l-18 -18c9 -10 18 -21 25 -33l24 14l10 -18l-24 -14c6 -12 11 -23 15 -36l24 7l6 -20l-25 -7c2 -11 3 -23 4 -35h26v-20h-26c-1 -12 -2 -24 -4 -35l25 -7l-6 -20l-24 7
c-4 -13 -9 -25 -15 -37l24 -13l-10 -18l-24 14c-7 -12 -16 -23 -25 -33l18 -18l-14 -14l-18 18c-10 -9 -21 -18 -33 -25l14 -24l-18 -10l-14 24c-10 -5 -21 -9 -32 -13l7 -26l-20 -5l-7 25c-13 -3 -26 -4 -39 -5zM323 192c0 -40 -32 -72 -72 -72s-72 32 -72 72s32 72 72 72
s72 -32 72 -72zM251 182c6 0 10 4 10 10s-4 10 -10 10s-10 -4 -10 -10s4 -10 10 -10z" />
    <glyph glyph-name="share" unicode="share" horiz-adv-x="389" 
d="M20 -44h349v349h-123v20h143v-10v-369v-10h-389v10v379h10h133v-20h-123v-349zM184 131v327h21v-327h-21zM122 381l-14 14l86 87l15 -15zM180 467l15 15l87 -87l-15 -14z" />
    <glyph glyph-name="share_fill" unicode="share_fill" horiz-adv-x="389" 
d="M0 325h389v-389h-389v389zM184 325v-194h21v194h-21zM184 325v133h21v-133h-21zM122 381l-14 14l86 87l15 -15zM180 467l15 15l87 -87l-15 -14z" />
    <glyph glyph-name="social_facebook" unicode="social_facebook" 
d="M372 142v-196h-21v196v11h10h67l-10 -9l9 76l11 -11h-77h-10v10v49c0 31 13 47 48 47h41l-10 -10v68h10l-1 -10c-11 1 -35 3 -58 3c-55 0 -89 -33 -89 -91v-56v-10h-10h-67l10 10v-77l-10 11h67h10v-11v-196l-10 10h79v-20h-79h-11v10v196l11 -10h-67h-10v10v77v10h10h67
l-11 -10v56c0 69 44 112 110 112c24 0 49 -2 61 -4l9 -1v-9v-68v-10h-11h-41c-23 0 -27 -6 -27 -27v-49l-11 10h77h11l-1 -11l-10 -77l-1 -9h-9h-67zM41 428c-11 0 -21 -10 -21 -21v-430c0 -11 10 -21 21 -21h430c11 0 21 10 21 21v430c0 11 -10 21 -21 21h-430zM0 -23v430
c0 23 18 41 41 41h430c23 0 41 -18 41 -41v-430c0 -23 -18 -41 -41 -41h-430c-23 0 -41 18 -41 41z" />
    <glyph glyph-name="social_facebook_fill" unicode="social_facebook_fill" 
d="M0 407c0 23 18 41 41 41h430c23 0 41 -18 41 -41v-430c0 -23 -18 -41 -41 -41h-430c-23 0 -41 18 -41 41v430zM351 -44v197h66l10 76h-76v49c0 22 6 37 38 37h41v69c-7 1 -31 3 -59 3c-59 0 -100 -37 -100 -102v-56h-66v-76h66v-197h80z" />
    <glyph glyph-name="social_github" unicode="social_github" 
d="M340 32c0 20 -5 38 -14 51c-8 -2 -16 -3 -24 -4c5 -4 10 -10 13 -19c80 12 125 53 125 145c0 32 -11 61 -32 83l-15 -14l19 -8c9 21 10 50 -3 83l-3 9l-9 3c-1 0 -3 1 -5 1c-19 3 -46 -4 -83 -29l17 2c-22 6 -46 10 -70 10s-48 -4 -70 -10l17 -2c-37 25 -64 32 -83 29
c-2 0 -4 -1 -5 -1l-9 -3l-4 -9c-13 -33 -11 -62 -2 -83l19 8l-15 14c-21 -22 -32 -51 -32 -83c0 -92 46 -133 125 -145c3 9 7 15 12 19c-8 1 -15 2 -23 4c-6 -10 -11 -22 -13 -36l20 -2l-8 18c-20 -9 -37 -7 -49 13c-3 5 -7 11 -14 18c-11 11 -26 18 -43 19
c-3 0 -6 0 -10 -1s-7 -2 -10 -4c-6 -4 -11 -11 -12 -19c-1 -13 6 -20 19 -29l1 -1l2 -1s1 0 2 -1c3 -3 6 -6 9 -11c3 -4 5 -9 7 -14l-1 1c2 -8 8 -17 17 -27c20 -21 50 -30 89 -22v4l-17 14h-3v-15v-9v-7v-10c0 4 5 8 7 8l-4 -20l7 20c-95 32 -162 121 -162 223
c0 130 106 236 236 236s236 -106 236 -236c0 -102 -66 -191 -161 -223l6 -20l-4 20c2 0 7 -4 7 -8v10v7v9v45zM97 88c-4 3 -8 6 -11 7l-1 -3h-6c0 0 -24 1 -1 -15c0 0 1 -1 4 -3c-1 0 -1 -1 -2 -1c-1 -1 -2 -1 -3 -1h2c2 0 6 -1 9 -3c6 -6 12 -16 18 -30c0 0 15 -49 86 -34
c0 -21 1 -38 1 -44c0 -7 -5 -14 -18 -12c-102 34 -175 130 -175 243c0 141 115 256 256 256s256 -115 256 -256c0 -113 -73 -209 -175 -243c-13 -2 -18 5 -18 12c0 8 1 37 1 71c0 24 -9 39 -18 47c57 6 117 28 117 126c0 28 -10 51 -26 69c3 6 11 33 -3 68
c0 0 -21 7 -70 -26c-20 6 -42 8 -64 8s-44 -2 -64 -8c-49 33 -70 26 -70 26c-14 -35 -6 -62 -3 -68c-16 -18 -26 -41 -26 -69c0 -98 59 -120 116 -126c-7 -6 -14 -17 -16 -34c-15 -7 -51 -18 -74 21c0 0 -6 11 -18 19c-1 1 -3 2 -4 3zM89 94l-2 -3h1c0 1 -1 2 -1 3
c-1 1 -2 2 -2 3c0 0 2 -1 4 -3z" />
    <glyph glyph-name="social_github_fill" unicode="social_github_fill" 
d="M0 192c0 141 115 256 256 256s256 -115 256 -256c0 -113 -73 -209 -175 -243c-13 -2 -18 5 -18 12c0 8 1 37 1 71c0 24 -9 39 -18 47c57 6 117 28 117 126c0 28 -10 51 -26 69c3 6 11 33 -3 68c0 0 -21 7 -70 -26c-20 6 -42 8 -64 8s-44 -2 -64 -8c-49 33 -70 26 -70 26
c-14 -35 -6 -62 -3 -68c-16 -18 -26 -41 -26 -69c0 -98 59 -120 116 -126c-7 -6 -14 -17 -16 -34c-15 -7 -51 -18 -74 21c0 0 -14 24 -40 26c0 0 -24 1 -1 -15c0 0 16 -8 28 -38c0 0 15 -49 86 -34c0 -21 1 -38 1 -44c0 -7 -5 -14 -18 -12c-102 34 -175 130 -175 243z" />
    <glyph glyph-name="social_googleplus" unicode="social_googleplus" 
d="M163 219v0h154c1 -8 3 -16 3 -27c0 -91 -63 -156 -157 -156c-90 0 -163 72 -163 160s73 160 163 160c44 0 82 -16 110 -42l-45 -42c-12 11 -33 25 -65 25c-56 0 -101 -45 -101 -101s45 -101 101 -101c65 0 89 45 93 69h-93v55zM512 212v-48h-48v-48h-48v48h-48v48h48v48
h48v-48h48z" />
    <glyph glyph-name="social_instagram" unicode="social_instagram" 
d="M20 79c0 -68 55 -123 123 -123h226c68 0 123 55 123 123v226c0 68 -55 123 -123 123h-226c-68 0 -123 -55 -123 -123v-226zM143 448h226c79 0 143 -64 143 -143v-226c0 -79 -64 -143 -143 -143h-226c-79 0 -143 64 -143 143v226c0 79 64 143 143 143zM369 330
c0 14 11 26 25 26s26 -12 26 -26s-12 -25 -26 -25s-25 11 -25 25zM369 192c0 62 -51 113 -113 113s-113 -51 -113 -113s51 -113 113 -113s113 51 113 113zM123 192c0 74 59 133 133 133s133 -59 133 -133s-59 -133 -133 -133s-133 59 -133 133z" />
    <glyph glyph-name="social_instagram_fill" unicode="social_instagram_fill" 
d="M0 305c0 79 64 143 143 143h226c79 0 143 -64 143 -143v-226c0 -79 -64 -143 -143 -143h-226c-79 0 -143 64 -143 143v226zM394 305c14 0 26 11 26 25s-12 26 -26 26s-25 -12 -25 -26s11 -25 25 -25zM369 192c0 -62 -51 -113 -113 -113s-113 51 -113 113s51 113 113 113
s113 -51 113 -113zM123 192c0 -74 59 -133 133 -133s133 59 133 133s-59 133 -133 133s-133 -59 -133 -133z" />
    <glyph glyph-name="social_linkedin" unicode="social_linkedin" 
d="M38 428c-10 0 -18 -8 -18 -17v-438c0 -9 8 -17 18 -17h436c10 0 18 8 18 17v438c0 9 -8 17 -18 17h-436zM474 448c21 0 38 -17 38 -37v-438c0 -20 -17 -37 -38 -37h-436c-21 0 -38 17 -38 37v438c0 20 17 37 38 37h436zM152 1h-76h-10v11v244v10h10h76h10v-10v-244v-11
h-10zM86 12v244l-10 -10h76l-10 10v-244l10 10h-76zM80 333c0 -19 15 -33 34 -33s34 14 34 33s-15 34 -34 34s-34 -15 -34 -34zM168 333c0 -30 -24 -54 -54 -54s-54 24 -54 54s24 55 54 55s54 -25 54 -55zM360 22l11 -10v119c0 23 -1 34 -6 46c-7 18 -22 29 -44 29
c-41 0 -56 -26 -56 -73v-121l10 10h-75l10 -10v244l-10 -10h72l-10 10v-33v-11h10h1h7l2 6c10 20 34 34 63 34c61 0 81 -31 81 -106v-134l10 10h-76zM447 1h-11h-76h-10v11v119c0 41 -5 54 -29 54c-27 0 -35 -15 -35 -52v-121v-11h-11h-75h-11v11v244v10h11h72h11v-10v-33
h-11v10h1v-10l-9 4c14 26 44 45 81 45c75 0 102 -41 102 -126v-134v-11z" />
    <glyph glyph-name="social_linkedin_fill" unicode="social_linkedin_fill" 
d="M436 12v0v134c0 66 -14 116 -91 116c-37 0 -62 -20 -72 -39h-1v33h-72v-244h75v121c0 32 6 62 46 62c39 0 39 -36 39 -64v-119h76zM114 289v0c24 0 44 20 44 44s-20 45 -44 45s-44 -21 -44 -45s20 -44 44 -44zM76 12h76v244h-76v-244zM474 448v0c21 0 38 -17 38 -37v-438
c0 -20 -17 -37 -38 -37h-436c-21 0 -38 17 -38 37v438c0 20 17 37 38 37h436z" />
    <glyph glyph-name="social_rss" unicode="social_rss" 
d="M143 18c0 34 -27 61 -61 61s-62 -27 -62 -61s28 -62 62 -62s61 28 61 62zM0 18c0 45 37 82 82 82s82 -37 82 -82s-37 -82 -82 -82s-82 37 -82 82zM20 448l-20 -20c271 0 492 -221 492 -492l20 20h-82l21 -20c0 249 -202 451 -451 451l20 -21v82zM0 448
c283 0 512 -229 512 -512h-82c0 238 -192 430 -430 430v82zM20 294l-20 -20c187 0 338 -151 338 -338l20 20h-82l21 -20c0 164 -133 297 -297 297l20 -21v82zM0 294c198 0 358 -160 358 -358h-82c0 153 -123 276 -276 276v82z" />
    <glyph glyph-name="social_rss_fill" unicode="social_rss_fill" 
d="M0 18c0 45 37 82 82 82s82 -37 82 -82s-37 -82 -82 -82s-82 37 -82 82zM471 -64h41c0 283 -229 512 -512 512v-41v-41c238 0 430 -192 430 -430h41zM317 -64h41c0 198 -160 358 -358 358v-41v-41c153 0 276 -123 276 -276h41z" />
    <glyph glyph-name="social_twitter" unicode="social_twitter" 
d="M462 285c0 -157 -123 -294 -297 -294v20c162 0 276 128 276 274v13s1 7 4 9c19 13 35 30 48 49l13 -15c-19 -8 -40 -15 -61 -17c-11 -1 -15 13 -6 19c19 11 32 29 39 50l15 -12c-21 -12 -43 -21 -67 -26c-3 -1 -7 0 -9 3c-28 30 -73 37 -109 18s-55 -59 -46 -99
c2 -7 -3 -13 -10 -13c-84 4 -162 43 -215 108l16 2c-24 -41 -12 -94 28 -120c9 -6 4 -19 -6 -19c-18 1 -35 5 -50 14l5 9h10v-1c0 -43 31 -81 73 -89c11 -2 11 -16 1 -19c-16 -4 -34 -5 -51 -2l12 13c12 -37 46 -61 85 -62c10 0 14 -13 6 -19c-38 -29 -84 -45 -132 -45
c-8 0 -17 1 -25 2l1 10l6 9c44 -28 96 -44 149 -44v-20c-57 0 -112 16 -160 46c-9 6 -5 20 6 19c8 -1 15 -1 23 -1c43 0 85 14 119 40l6 -18c-48 1 -88 32 -103 77c-2 7 3 14 11 13c14 -3 28 -3 41 1l1 -19c-52 10 -89 56 -89 108v1c0 8 8 13 15 9c13 -7 27 -12 41 -12
l-6 -18c-49 32 -63 97 -34 147c4 6 11 7 16 1c49 -60 123 -97 201 -101l-11 -12c-11 49 12 99 56 122s100 14 134 -22l-10 3c21 4 42 12 61 23c8 5 18 -2 15 -11c-8 -25 -26 -47 -49 -61l-6 18c19 2 38 7 55 15c9 4 18 -7 12 -15c-14 -21 -32 -39 -53 -54l-6 8l11 1v-14z
" />
    <glyph glyph-name="social_twitter_fill" unicode="social_twitter_fill" 
d="M161 -9c193 0 299 160 299 299v13c21 15 38 34 52 55c-19 -8 -39 -15 -60 -17c22 13 38 34 46 58c-21 -12 -43 -20 -67 -25c-33 35 -84 43 -126 21s-64 -71 -53 -117c-84 4 -163 44 -216 110c-28 -48 -14 -109 32 -140c-17 0 -33 5 -48 13v-2c0 -50 36 -93 85 -103
c-15 -4 -32 -4 -48 -1c14 -43 53 -72 98 -73c-37 -29 -83 -45 -130 -45c-8 0 -17 0 -25 1c48 -31 104 -47 161 -47z" />
    <glyph glyph-name="sort" unicode="sort" 
d="M489 192c0 129 -104 233 -233 233s-233 -104 -233 -233s104 -233 233 -233s233 104 233 233zM0 192c0 141 115 256 256 256s256 -115 256 -256s-115 -256 -256 -256s-256 115 -256 256zM93 262v23h326v-23h-326zM140 169v23h232v-23h-232zM186 76v23h140v-23h-140z" />
    <glyph glyph-name="sort_fill" unicode="sort_fill" 
d="M256 -64c-141 0 -256 115 -256 256s115 256 256 256s256 -115 256 -256s-115 -256 -256 -256zM93 285v-23h326v23h-326zM140 192v-23h232v23h-232zM186 99v-23h140v23h-140z" />
    <glyph glyph-name="star" unicode="star" horiz-adv-x="505" 
d="M96 -32l61 183l-157 114l193 -1l59 184l60 -184l193 1l-157 -114l61 -183l-157 114zM133 18l119 87l120 -87l-46 141l120 86h-148l-46 140l-45 -140h-148l120 -86z" />
    <glyph glyph-name="star_fill" unicode="star_fill" horiz-adv-x="505" 
d="M252 82l-156 -114l61 183l-157 114l193 -1l59 184l60 -184l193 1l-157 -114l61 -183z" />
    <glyph glyph-name="star_half" unicode="star_half" horiz-adv-x="505" 
d="M96 -32l61 183l-157 114l193 -1l59 184l60 -184l193 1l-157 -114l61 -183l-157 114zM252 385v-280l120 -87l-46 141l120 86h-148z" />
    <glyph glyph-name="stopwatch" unicode="stopwatch" horiz-adv-x="471" 
d="M386 338l22 22l14 -15l-22 -21zM394 373l29 29l43 -43l-29 -29zM471 172c0 -130 -105 -236 -235 -236s-236 106 -236 236s106 235 236 235s235 -105 235 -235zM20 172c0 -119 97 -216 216 -216s215 97 215 216s-96 215 -215 215s-216 -96 -216 -215zM215 397v51h41v-51
h-41zM246 200v0c12 -4 20 -15 20 -28s-8 -25 -20 -29v-43h-21v43c-12 4 -20 16 -20 29s8 24 20 28v125h21v-125z" />
    <glyph glyph-name="stopwatch_fill" unicode="stopwatch_fill" horiz-adv-x="471" 
d="M386 338l22 22l14 -15l-22 -21zM394 373l29 29l43 -43l-29 -29zM215 397v51h41v-51h-41zM236 -64c-130 0 -236 106 -236 236s106 235 236 235s235 -105 235 -235s-105 -236 -235 -236zM246 200v125h-21v-125c-12 -4 -20 -15 -20 -28s8 -25 20 -29v-43h21v43
c12 4 20 16 20 29s-8 24 -20 28v0z" />
    <glyph glyph-name="tabs" unicode="tabs" 
d="M21 -43v0h355v355h-355v-355zM0 -54v387h10h377h10v-397h-10h-387v10v0zM502 51h-84v21h73v355h-355v-73h-21v94h10h377h10v-397h-10z" />
    <glyph glyph-name="tabs_fill" unicode="tabs_fill" 
d="M0 -64v397h397v-397h-397zM512 448v-47v-350h-94v303h-303v94h397z" />
    <glyph glyph-name="tags" unicode="tags" horiz-adv-x="497" 
d="M191 -18l275 275l11 158l20 -11l-11 -162l-277 -277zM285 415l176 9l1 2l-19 19l-2 -1l-10 -175l7 14l-284 -284h31l-170 170v-31l284 283zM463 446l-10 -179l-284 -283l-169 169l283 284zM324 354c13 13 33 13 46 0s13 -34 0 -47s-33 -13 -46 0s-13 34 0 47z" />
    <glyph glyph-name="tags_fill" unicode="tags_fill" horiz-adv-x="497" 
d="M191 -18l275 275l11 158l20 -11l-11 -162l-277 -277zM283 437l180 9l-10 -179l-284 -283l-169 169zM324 307c13 -13 33 -13 46 0s13 34 0 47s-33 13 -46 0s-13 -34 0 -47z" />
    <glyph glyph-name="tape" unicode="tape" 
d="M215 242c0 55 -44 99 -99 99s-99 -44 -99 -99s44 -100 99 -100s99 45 99 100zM0 242c0 64 52 115 116 115s115 -51 115 -115s-51 -116 -115 -116s-116 52 -116 116zM495 242c0 55 -44 99 -99 99s-99 -44 -99 -99s44 -100 99 -100s99 45 99 100zM281 242
c0 64 51 115 115 115s116 -51 116 -115s-52 -116 -116 -116s-115 52 -115 116zM116 126v16h280v-16h-280z" />
    <glyph glyph-name="tape_fill" unicode="tape_fill" 
d="M0 242c0 64 52 115 116 115s115 -51 115 -115s-51 -116 -115 -116s-116 52 -116 116zM281 242c0 64 51 115 115 115s116 -51 116 -115s-52 -116 -116 -116s-115 52 -115 116zM116 126v16h280v-16h-280z" />
    <glyph glyph-name="ticket" unicode="ticket" horiz-adv-x="503" 
d="M0 361v18h503v-18h-503zM0 84v17h503v-17h-503zM486 266v95h17v-95h-17zM0 266v95h17v-95h-17zM486 101v95h17v-95h-17zM0 101v95h17v-95h-17zM486 274v9c-29 0 -52 -23 -52 -52s23 -52 52 -52v9v8c-19 0 -35 16 -35 35s16 35 35 35v8zM17 188v-9c29 0 52 23 52 52
s-23 52 -52 52v-9v-8c19 0 35 -16 35 -35s-16 -35 -35 -35v-8zM347 309c0 10 7 18 17 18s18 -8 18 -18s-8 -17 -18 -17s-17 7 -17 17zM347 231c0 10 7 17 17 17s18 -7 18 -17s-8 -17 -18 -17s-17 7 -17 17zM347 153c0 10 7 17 17 17s18 -7 18 -17s-8 -17 -18 -17
s-17 7 -17 17z" />
    <glyph glyph-name="ticket_fill" unicode="ticket_fill" horiz-adv-x="503" 
d="M503 182v-98h-503v98c5 -2 11 -3 17 -3c29 0 52 23 52 52s-23 52 -52 52c-6 0 -12 -1 -17 -3v99h503v-99c-5 2 -11 3 -17 3c-29 0 -52 -23 -52 -52s23 -52 52 -52c6 0 12 1 17 3zM364 292c10 0 18 7 18 17s-8 18 -18 18s-17 -8 -17 -18s7 -17 17 -17zM364 214
c10 0 18 7 18 17s-8 17 -18 17s-17 -7 -17 -17s7 -17 17 -17zM364 136c10 0 18 7 18 17s-8 17 -18 17s-17 -7 -17 -17s7 -17 17 -17z" />
    <glyph glyph-name="time" unicode="time" 
d="M492 192c0 130 -106 236 -236 236s-236 -106 -236 -236s106 -236 236 -236s236 106 236 236zM0 192c0 141 115 256 256 256s256 -115 256 -256s-115 -256 -256 -256s-256 115 -256 256zM256 161h-133v21h123v184h20v-205h-10z" />
    <glyph glyph-name="time_fill" unicode="time_fill" 
d="M256 -64v0c-141 0 -256 115 -256 256s115 256 256 256s256 -115 256 -256s-115 -256 -256 -256zM256 161h10v205h-20v-184h-123v-21h133v0z" />
    <glyph glyph-name="timer" unicode="timer" 
d="M258 448c140 -1 254 -115 254 -256s-115 -256 -256 -256s-256 115 -256 256c0 69 28 132 72 178l4 4v0l14 -15l-2 -2c-42 -42 -68 -101 -68 -165c0 -130 106 -236 236 -236s236 106 236 236c0 129 -105 235 -234 236v-113h-20v133h20v0zM146 303l143 -103s7 -14 -8 -30
s-34 -11 -34 -11z" />
    <glyph glyph-name="timer_fill" unicode="timer_fill" 
d="M258 401v0h-17v-109h17v92c105 -1 190 -86 190 -192s-86 -192 -192 -192s-192 86 -192 192c0 52 21 100 55 135l1 1l-11 12v0l-3 -3c-36 -38 -59 -89 -59 -145c0 -115 94 -209 209 -209s209 94 209 209s-92 208 -207 209zM256 -64v0c-141 0 -256 115 -256 256
s115 256 256 256s256 -115 256 -256s-115 -256 -256 -256zM146 303v0l101 -144s19 -5 34 11s8 30 8 30z" />
    <glyph glyph-name="today" unicode="today" 
d="M0 401c0 26 21 47 47 47h418c26 0 47 -21 47 -47v-418c0 -26 -21 -47 -47 -47h-418c-26 0 -47 21 -47 47v418zM23 320v-337c0 -13 11 -24 24 -24h418c13 0 24 11 24 24v337c0 13 -11 23 -24 23h-418c-13 0 -24 -10 -24 -23zM303 151c0 22 18 41 40 41s41 -19 41 -41
s-19 -40 -41 -40s-40 18 -40 40zM244 151c0 10 8 18 18 18s17 -8 17 -18s-7 -17 -17 -17s-18 7 -18 17zM407 151c0 10 8 18 18 18s17 -8 17 -18s-7 -17 -17 -17s-18 7 -18 17zM244 47c0 10 8 17 18 17s17 -7 17 -17s-7 -18 -17 -18s-18 8 -18 18zM326 47c0 10 7 17 17 17
s18 -7 18 -17s-8 -18 -18 -18s-17 8 -17 18zM326 256c0 10 7 17 17 17s18 -7 18 -17s-8 -17 -18 -17s-17 7 -17 17zM407 256c0 10 8 17 18 17s17 -7 17 -17s-7 -17 -17 -17s-18 7 -18 17zM163 151c0 10 7 18 17 18s18 -8 18 -18s-8 -17 -18 -17s-17 7 -17 17zM163 47
c0 10 7 17 17 17s18 -7 18 -17s-8 -18 -18 -18s-17 8 -17 18zM244 256c0 10 8 17 18 17s17 -7 17 -17s-7 -17 -17 -17s-18 7 -18 17zM81 151c0 10 8 18 18 18s17 -8 17 -18s-7 -17 -17 -17s-18 7 -18 17zM81 47c0 10 8 17 18 17s17 -7 17 -17s-7 -18 -17 -18s-18 8 -18 18z
M163 256c0 10 7 17 17 17s18 -7 18 -17s-8 -17 -18 -17s-17 7 -17 17z" />
    <glyph glyph-name="today_fill" unicode="today_fill" 
d="M0 401c0 26 21 47 47 47h418c26 0 47 -21 47 -47v-418c0 -26 -21 -47 -47 -47h-418c-26 0 -47 21 -47 47v418zM343 111c22 0 41 18 41 40s-19 41 -41 41s-40 -19 -40 -41s18 -40 40 -40zM262 134c10 0 17 7 17 17s-7 18 -17 18s-18 -8 -18 -18s8 -17 18 -17zM425 134
c10 0 17 7 17 17s-7 18 -17 18s-18 -8 -18 -18s8 -17 18 -17zM262 29c10 0 17 8 17 18s-7 17 -17 17s-18 -7 -18 -17s8 -18 18 -18zM343 29c10 0 18 8 18 18s-8 17 -18 17s-17 -7 -17 -17s7 -18 17 -18zM343 239c10 0 18 7 18 17s-8 17 -18 17s-17 -7 -17 -17s7 -17 17 -17z
M425 239c10 0 17 7 17 17s-7 17 -17 17s-18 -7 -18 -17s8 -17 18 -17zM180 134c10 0 18 7 18 17s-8 18 -18 18s-17 -8 -17 -18s7 -17 17 -17zM180 29c10 0 18 8 18 18s-8 17 -18 17s-17 -7 -17 -17s7 -18 17 -18zM262 239c10 0 17 7 17 17s-7 17 -17 17s-18 -7 -18 -17
s8 -17 18 -17zM99 134c10 0 17 7 17 17s-7 18 -17 18s-18 -8 -18 -18s8 -17 18 -17zM99 29c10 0 17 8 17 18s-7 17 -17 17s-18 -7 -18 -17s8 -18 18 -18zM180 239c10 0 18 7 18 17s-8 17 -18 17s-17 -7 -17 -17s7 -17 17 -17zM23 401v-34c0 -13 11 -24 24 -24h418
c13 0 24 11 24 24v34c0 13 -11 24 -24 24h-418c-13 0 -24 -11 -24 -24z" />
    <glyph glyph-name="trash" unicode="trash" horiz-adv-x="389" 
d="M123 366v62h143v-62l21 21h-185zM123 448h143c11 0 21 -9 21 -20v-62h-185v62c0 11 10 20 21 20zM0 366v21h389v-21h-389zM22 366v1l18 20h1l28 -429c0 -1 1 -2 1 -2h239c6 0 12 6 12 12l27 419h1l18 -20v-1h-345zM369 387l-27 -420c-1 -17 -16 -31 -33 -31h-239
c-11 0 -20 10 -21 21l-29 430h349zM113 315l-11 -1l21 -307l10 1h10l-20 308zM276 315l11 -1l-21 -307l-10 1h-10l20 308zM195 315h-11v-307h11h10v307h-10z" />
    <glyph glyph-name="trash_fill" unicode="trash_fill" horiz-adv-x="389" 
d="M123 366v62h143v-62l21 21h-185zM123 448h143c11 0 21 -9 21 -20v-62h-185v62c0 11 10 20 21 20zM0 366v21h389v-21h-389zM20 387h349l-27 -420c-1 -17 -16 -31 -33 -31h-239c-11 0 -20 10 -21 21zM102 314l21 -307l20 1l-20 308zM287 314l-21 2l-20 -308l20 -1zM184 315
v-307h21v307h-21z" />
    <glyph glyph-name="tune" unicode="tune" horiz-adv-x="392" 
d="M318 116c25 3 36 5 60 13l6 -20c-25 -8 -37 -11 -64 -14c-7 -1 -11 -1 -15 -2c-3 -1 -5 -1 -8 -2c-27 -11 -39 -39 -31 -57c7 -18 29 -28 53 -23c17 3 35 15 43 30c2 4 4 8 5 14c3 11 4 24 4 34c0 1 -1 1 -1 2l-2 336c0 -1 0 -2 1 -2l-225 -37c-1 0 -2 -1 -2 -2v-6v-16
c0 -17 1 -35 1 -55v-94c0 -90 0 -150 -1 -166c-2 -49 -6 -66 -25 -84s-46 -23 -70 -18c-22 5 -40 17 -45 37c-9 34 10 65 44 75c7 2 14 4 23 5c2 0 4 0 7 1c24 4 35 7 51 15l9 -19c-19 -9 -31 -12 -57 -16c-3 0 -5 -1 -7 -1c-8 -1 -14 -3 -20 -5c-23 -7 -36 -27 -30 -50
c3 -11 14 -18 29 -21c18 -4 39 0 52 12c14 13 16 25 18 69c1 16 1 76 1 166v94c0 20 -1 38 -1 55v16v6c0 11 8 20 19 22l226 38c12 2 22 -7 22 -19l3 -335v-3c0 -12 0 -26 -3 -39c-2 -7 -5 -13 -8 -19c-11 -21 -35 -35 -57 -40c-33 -7 -65 7 -76 35c-12 29 3 69 42 84
c4 1 7 2 11 3c5 1 10 2 18 3zM368 337l1 -21l-226 -40v20z" />
    <glyph glyph-name="tune_fill" unicode="tune_fill" horiz-adv-x="392" 
d="M143 276v-61c0 -90 0 -150 -1 -166c-2 -49 -6 -66 -25 -84s-46 -23 -70 -18c-22 5 -40 17 -45 37c-9 34 10 65 44 75c7 2 14 4 23 5c2 0 4 0 7 1c24 4 35 7 51 15l9 -19c-5 -3 -9 -4 -14 -6v1h-1c0 23 1 79 1 159v94c0 20 -1 38 -1 55v16v6c0 11 8 20 19 22l226 38
c12 2 22 -7 22 -19l3 -335v-3c0 -12 0 -26 -3 -39c-2 -7 -5 -13 -8 -19c-11 -21 -35 -35 -57 -40c-33 -7 -65 7 -76 35c-12 29 3 69 42 84c4 1 7 2 11 3c5 1 10 2 18 3c25 3 36 5 60 13l6 -20c-4 -1 -7 -3 -11 -4c0 2 -1 4 -1 4s-1 -1 -2 -1l-2 207z" />
    <glyph glyph-name="undo" unicode="undo" horiz-adv-x="430" 
d="M113 381v-174l-113 87zM276 8v-11c85 0 154 69 154 154s-69 154 -154 154v-11v-10c74 0 134 -59 134 -133s-60 -133 -134 -133v-10zM113 284v21h163v-21h-163zM20 -3v21h256v-21h-256z" />
    </font>
</defs>
</svg>
